<?xml version="1.0" standalone="no"?>
<!DOCTYPE svg PUBLIC "-//W3C//DTD SVG 1.1//EN" "http://www.w3.org/Graphics/SVG/1.1/DTD/svg11.dtd" >
<svg xmlns="http://www.w3.org/2000/svg">
<metadata>Generated by IcoMoon</metadata>
<defs>
<font id="bronson-vw" horiz-adv-x="1024">
<font-face units-per-em="1024" ascent="960" descent="-64" />
<missing-glyph horiz-adv-x="1024" />
<glyph unicode="&#x20;" horiz-adv-x="512" d="" />
<glyph unicode="&#xe900;" glyph-name="360" d="M375.040 286.72c-25.6 0-43.52 5.12-60.16 14.080l-11.52-35.84c19.2-10.24 39.68-17.92 72.96-17.92 58.88 0 89.6 25.6 89.6 66.56 0 29.44-17.92 48.64-39.68 55.040v0c15.36 5.12 33.28 23.040 33.28 48.64 0 39.68-28.16 64-83.2 64-23.040 0-48.64-5.12-67.84-15.36l14.080-35.84c17.92 6.4 38.4 10.24 53.76 10.24 24.32 0 35.84-10.24 35.84-28.16s-10.24-29.44-35.84-29.44h-38.4v-38.4h38.4c30.72 0 42.24-10.24 42.24-30.72-2.56-16.64-20.48-26.88-43.52-26.88zM624.64 477.44h-49.92l-62.72-97.28c-11.52-19.2-15.36-35.84-15.36-53.76 0-43.52 29.44-78.080 87.040-78.080 55.040 0 87.040 34.56 87.040 78.080 0 44.8-29.44 76.8-71.68 76.8-10.24 0-19.2-1.28-24.32-3.84v0l52.48 76.8v1.28h-2.56zM581.12 360.96c24.32 0 38.4-11.52 38.4-35.84 0-25.6-14.080-38.4-38.4-38.4s-38.4 14.080-38.4 38.4c0 25.6 16.64 35.84 38.4 35.84zM775.68 482.56c-62.72 0-87.040-44.8-87.040-117.76s25.6-117.76 87.040-117.76c62.72 0 87.040 44.8 87.040 117.76s-24.32 117.76-87.040 117.76zM775.68 286.72c-29.44 0-39.68 25.6-39.68 78.080s10.24 78.080 39.68 78.080 38.4-25.6 38.4-78.080c1.28-52.48-8.96-78.080-38.4-78.080zM947.2 482.56c-34.56 0-58.88-20.48-58.88-55.040s24.32-55.040 58.88-55.040c34.56 0 58.88 20.48 58.88 55.040-1.28 34.56-24.32 55.040-58.88 55.040zM947.2 400.64c-15.36 0-25.6 8.96-25.6 25.6 0 15.36 10.24 25.6 25.6 25.6s25.6-10.24 25.6-25.6c1.28-16.64-10.24-25.6-25.6-25.6zM456.96 57.6c-180.48 0-323.84 149.76-317.44 331.52 6.4 171.52 154.88 305.92 326.4 305.92h43.52v-133.12c0-11.52 14.080-19.2 24.32-10.24l221.44 189.44c6.4 6.4 6.4 19.2 0 24.32l-222.72 190.72c-8.96 8.96-24.32 1.28-24.32-10.24v-130.56h-42.24c-245.76 0-453.12-200.96-448-448 2.56-236.8 199.68-431.36 439.040-431.36 98.56 0 192 33.28 270.080 92.16 11.52 8.96 14.080 25.6 3.84 38.4l-47.36 52.48c-8.96 10.24-24.32 11.52-34.56 3.84-53.76-43.52-121.6-65.28-192-65.28z" />
<glyph unicode="&#xe901;" glyph-name="accessories" d="M387.84 375.040l121.6 208.64-121.6 208.64h-241.92l-121.6-208.64 121.6-208.64h241.92zM266.24 706.56c66.56 0 122.88-53.76 122.88-122.88 0-66.56-53.76-122.88-122.88-122.88-66.56 0-122.88 53.76-122.88 122.88 2.56 66.56 56.32 122.88 122.88 122.88zM558.080 535.040l175.36-26.88 78.080 113.92-184.32 28.16-69.12-115.2zM348.16 176.64l148.48-23.040 78.080 117.76-156.16 23.040-70.4-117.76zM268.8 39.68l8.96-103.68 96 35.84 81.92 121.6-140.8 23.040-46.080-76.8zM453.12 355.84l162.56-25.6 78.080 117.76-170.24 25.6-70.4-117.76zM698.88 894.72l35.84-60.16-72.96-125.44 188.16-29.44 38.4 56.32 69.12-7.68 42.24 65.28-261.12 166.4-39.68-65.28z" />
<glyph unicode="&#xe902;" glyph-name="accident-specialist" d="M528.64-64c-8.96 0-16.64 6.4-16.64 15.36 0 3.84 1.28 6.4 2.56 8.96l24.32 35.84-369.92 44.8 343.040 148.48-286.72 239.36 367.36-61.44-112.64 355.84 276.48-249.6 97.28 359.68 98.56-359.68 26.88 25.6c5.12 6.4 15.36 7.68 23.040 2.56s7.68-15.36 2.56-23.040c-1.28-1.28-2.56-2.56-3.84-3.84l-66.56-61.44-80.64 296.96-79.36-295.68-227.84 204.8 93.44-291.84-302.080 49.92 235.52-195.84-281.6-121.6 304.64-37.12-55.040-79.36c-2.56-5.12-7.68-7.68-12.8-7.68zM948.48-64c32 0 58.88 26.88 58.88 58.88v424.96l-110.080-98.56-48.64 179.2-48.64-177.92-136.96 124.16 57.6-177.92-183.040 30.72 142.080-117.76-170.24-72.96 183.040-23.040-99.84-149.76h355.84zM392.96 741.12c25.6 25.6 39.68 60.16 37.12 96l-16.64 16.64-71.68-71.68-71.68 19.2-19.2 71.68 71.68 71.68-16.64 15.36c-35.84 1.28-70.4-11.52-96-37.12-35.84-35.84-47.36-88.32-29.44-135.68l-151.040-151.040c-17.92-17.92-17.92-47.36 0-65.28 0 0 0 0 0 0l10.24-10.24c17.92-17.92 47.36-17.92 65.28 0l151.040 149.76c48.64-17.92 101.12-5.12 136.96 30.72z" />
<glyph unicode="&#xe903;" glyph-name="add-user" d="M618.24 33.28h-160v229.12h160v158.72h143.36c-33.28 94.72-94.72 139.52-209.92 154.88-29.44-23.040-66.56-35.84-111.36-35.84-46.080 0-84.48 12.8-111.36 35.84-190.72-21.76-247.040-120.32-250.88-389.12 0-7.68 0-19.2 0-29.44v-135.68c0-14.080 10.24-26.88 23.040-26.88 0 0 76.8-35.84 337.92-35.84 74.24 0 134.4 2.56 183.040 7.68v64h-3.84zM787.2-64v160h160v103.68h-160v158.72h-103.68v-160h-160v-103.68h160v-158.72h103.68zM442.88 602.88c103.68 0 167.68 64 167.68 167.68s-46.080 189.44-167.68 189.44c-124.16 0-167.68-84.48-167.68-188.16 1.28-103.68 64-168.96 167.68-168.96z" />
<glyph unicode="&#xe904;" glyph-name="air-filter" d="M935.68 851.2c0-12.8-10.24-23.040-23.040-23.040h-683.52c-12.8 0-23.040 10.24-23.040 23.040v32c0 12.8 10.24 23.040 23.040 23.040h683.52c12.8 0 23.040-10.24 23.040-23.040v-32zM935.68 12.8c0-12.8-10.24-23.040-23.040-23.040h-683.52c-12.8 0-23.040 10.24-23.040 23.040v32c0 12.8 10.24 23.040 23.040 23.040h683.52c12.8 0 23.040-10.24 23.040-23.040v-32zM302.080 824.32c-12.8 0-23.040-10.24-23.040-23.040v-238.080h44.8v236.8c0 12.8-8.96 24.32-21.76 24.32v0zM369.92 651.52c0 0 21.76 39.68 44.8 39.68v108.8c0 12.8-10.24 23.040-23.040 23.040s-23.040-10.24-23.040-23.040l1.28-148.48zM459.52 665.6l44.8-38.4v172.8c0 12.8-10.24 23.040-23.040 23.040s-23.040-10.24-23.040-23.040l1.28-134.4zM549.12 590.080l44.8-38.4v248.32c0 12.8-10.24 23.040-23.040 23.040s-23.040-10.24-23.040-23.040v-209.92zM638.72 514.56c14.080-12.8 30.72-25.6 44.8-38.4v323.84c0 12.8-10.24 23.040-23.040 23.040s-23.040-10.24-23.040-23.040v-285.44zM683.52 417.28c-14.080-12.8-29.44-25.6-44.8-38.4v-282.88c0-12.8 10.24-23.040 23.040-23.040s23.040 10.24 23.040 23.040v321.28zM593.92 340.48l-44.8-38.4v-207.36c0-12.8 10.24-23.040 23.040-23.040s23.040 10.24 23.040 23.040v245.76zM504.32 264.96l-44.8-38.4v-130.56c0-12.8 10.24-23.040 23.040-23.040s23.040 10.24 23.040 23.040v168.96zM414.72 202.24c-23.040 0-44.8 17.92-44.8 39.68v-145.92c0-12.8 10.24-23.040 23.040-23.040s23.040 10.24 23.040 23.040l-1.28 106.24zM323.84 332.8h-44.8v-236.8c0-12.8 10.24-23.040 23.040-23.040s23.040 10.24 23.040 23.040l-1.28 236.8zM773.12 96c0-12.8-10.24-23.040-23.040-23.040s-23.040 10.24-23.040 23.040v704c0 12.8 10.24 23.040 23.040 23.040s23.040-10.24 23.040-23.040v-704zM864 96c0-12.8-10.24-23.040-23.040-23.040s-23.040 10.24-23.040 23.040v704c0 12.8 10.24 23.040 23.040 23.040s23.040-10.24 23.040-23.040v-704zM679.68 942.080c0-10.24-10.24-17.92-23.040-17.92h-171.52c-12.8 0-23.040 7.68-23.040 17.92s11.52 17.92 23.040 17.92h172.8c11.52 0 21.76-7.68 21.76-17.92zM679.68-46.080c0-10.24-10.24-17.92-23.040-17.92h-171.52c-12.8 0-23.040 7.68-23.040 17.92s10.24 17.92 23.040 17.92h172.8c11.52 0 21.76-7.68 21.76-17.92zM427.52 250.88c-17.92 0-32 14.080-32 32v71.68h-272.64c-19.2 0-34.56 16.64-34.56 34.56v112.64c0 19.2 16.64 34.56 34.56 34.56h272.64v70.4c0 17.92 14.080 32 32 32 7.68 0 15.36-2.56 20.48-7.68l188.16-161.28c7.68-6.4 11.52-15.36 11.52-25.6s-3.84-19.2-11.52-25.6l-188.16-160c-5.12-5.12-12.8-7.68-20.48-7.68v0z" />
<glyph unicode="&#xe905;" glyph-name="arrow-double-down" d="M486.4 413.44c7.68-7.68 17.92-10.24 25.6-10.24v0 0 0 0c10.24 0 17.92 2.56 25.6 10.24l391.68 392.96c15.36 15.36 15.36 37.12 0 52.48l-84.48 89.6c-15.36 15.36-37.12 15.36-52.48 0l-277.76-275.2-277.76 275.2c-15.36 15.36-37.12 15.36-52.48 0l-89.6-89.6c-15.36-15.36-15.36-37.12 0-52.48l391.68-392.96zM844.8 481.28c-15.36 15.36-37.12 15.36-52.48 0l-277.76-277.76-277.76 277.76c-15.36 15.36-37.12 15.36-52.48 0l-89.6-89.6c-15.36-15.36-15.36-37.12 0-52.48l391.68-392.96c7.68-7.68 17.92-10.24 25.6-10.24v0 0 0 0c10.24 0 17.92 2.56 25.6 10.24l392.96 392.96c15.36 15.36 15.36 37.12 0 52.48l-85.76 89.6z" />
<glyph unicode="&#xe906;" glyph-name="arrow-double-left" d="M478.72 472.32c-7.68-7.68-10.24-17.92-10.24-24.32v0 0 0 0c0-10.24 2.56-17.92 10.24-24.32l391.68-392.96c15.36-15.36 37.12-15.36 52.48 0l89.6 89.6c15.36 15.36 15.36 37.12 0 52.48l-276.48 273.92 276.48 276.48c15.36 15.36 15.36 37.12 0 52.48l-89.6 89.6c-15.36 15.36-37.12 15.36-52.48 0l-391.68-392.96zM544 117.76c15.36 15.36 15.36 37.12 0 52.48l-275.2 276.48 276.48 276.48c15.36 15.36 15.36 37.12 0 52.48l-89.6 89.6c-15.36 15.36-37.12 15.36-52.48 0l-392.96-392.96c-7.68-7.68-10.24-17.92-10.24-25.6v0 0 0 0c0-10.24 2.56-17.92 10.24-24.32l391.68-391.68c15.36-15.36 37.12-15.36 52.48 0l89.6 87.040z" />
<glyph unicode="&#xe907;" glyph-name="arrow-double-right" d="M545.28 423.68c7.68 7.68 10.24 17.92 10.24 24.32v0 0 0 0c0 10.24-2.56 17.92-10.24 24.32l-391.68 392.96c-15.36 15.36-37.12 15.36-52.48 0l-89.6-89.6c-15.36-15.36-15.36-37.12 0-52.48l276.48-273.92-276.48-276.48c-15.36-15.36-15.36-37.12 0-52.48l89.6-89.6c15.36-15.36 37.12-15.36 52.48 0l391.68 392.96zM480 778.24c-15.36-15.36-15.36-37.12 0-52.48l275.2-276.48-275.2-276.48c-15.36-15.36-15.36-37.12 0-52.48l89.6-89.6c15.36-15.36 37.12-15.36 52.48 0l391.68 394.24c7.68 7.68 10.24 17.92 10.24 24.32v0 0 0 0c0 10.24-2.56 17.92-10.24 24.32l-391.68 391.68c-15.36 15.36-37.12 15.36-52.48 0l-89.6-87.040z" />
<glyph unicode="&#xe908;" glyph-name="arrow-double-up" d="M536.32 481.28c-7.68 7.68-17.92 10.24-24.32 10.24v0 0 0 0c-10.24 0-17.92-2.56-24.32-10.24l-392.96-391.68c-15.36-15.36-15.36-37.12 0-52.48l89.6-89.6c15.36-15.36 37.12-15.36 52.48 0l273.92 276.48 276.48-276.48c15.36-15.36 37.12-15.36 52.48 0l89.6 89.6c15.36 15.36 15.36 37.12 0 52.48l-392.96 391.68zM181.76 416c15.36-15.36 37.12-15.36 52.48 0l276.48 275.2 276.48-276.48c15.36-15.36 37.12-15.36 52.48 0l89.6 89.6c15.36 15.36 15.36 37.12 0 52.48l-392.96 392.96c-7.68 7.68-17.92 10.24-25.6 10.24v0 0 0 0c-10.24 0-17.92-2.56-24.32-10.24l-391.68-391.68c-15.36-15.36-15.36-37.12 0-52.48l87.040-89.6z" />
<glyph unicode="&#xe909;" glyph-name="arrow-down" d="M14.080 596.48l468.48-468.48c8.96-8.96 20.48-11.52 29.44-11.52v0 0 0 0c11.52 0 20.48 2.56 29.44 11.52l469.76 468.48c17.92 17.92 17.92 44.8 0 62.72l-107.52 107.52c-17.92 17.92-44.8 17.92-62.72 0l-328.96-331.52-331.52 331.52c-17.92 17.92-44.8 17.92-62.72 0l-107.52-107.52c-14.080-17.92-14.080-44.8 3.84-62.72z" />
<glyph unicode="&#xe90a;" glyph-name="arrow-left" d="M660.48 945.92l-468.48-468.48c-8.96-8.96-11.52-20.48-11.52-29.44v0 0 0 0c0-11.52 2.56-20.48 11.52-29.44l468.48-469.76c17.92-17.92 44.8-17.92 62.72 0l107.52 107.52c17.92 17.92 17.92 44.8 0 62.72l-331.52 328.96 331.52 331.52c17.92 17.92 17.92 44.8 0 62.72l-107.52 107.52c-17.92 14.080-44.8 14.080-62.72-3.84z" />
<glyph unicode="&#xe90b;" glyph-name="arrow-right" d="M363.52-49.92l468.48 468.48c8.96 8.96 11.52 20.48 11.52 29.44v0 0 0 0c0 11.52-2.56 20.48-11.52 29.44l-468.48 469.76c-17.92 17.92-44.8 17.92-62.72 0l-107.52-107.52c-17.92-17.92-17.92-44.8 0-62.72l331.52-328.96-331.52-331.52c-17.92-17.92-17.92-44.8 0-62.72l107.52-107.52c17.92-14.080 44.8-14.080 62.72 3.84z" />
<glyph unicode="&#xe90c;" glyph-name="arrow-up" d="M1009.92 299.52l-468.48 468.48c-8.96 8.96-20.48 11.52-29.44 11.52v0 0 0 0c-11.52 0-20.48-2.56-29.44-11.52l-468.48-468.48c-17.92-17.92-17.92-44.8 0-62.72l107.52-107.52c17.92-17.92 44.8-17.92 62.72 0l327.68 331.52 331.52-331.52c17.92-17.92 44.8-17.92 62.72 0l107.52 107.52c14.080 17.92 14.080 44.8-3.84 62.72z" />
<glyph unicode="&#xe90d;" glyph-name="attention-conflict" d="M995.84 851.2h-967.68c-15.36 0-28.16-12.8-28.16-28.16v-561.92c0-15.36 12.8-28.16 28.16-28.16l165.12-1.28v-185.6h72.96l138.24 185.6 592.64 1.28c15.36 0 28.16 12.8 28.16 28.16v561.92c-1.28 15.36-14.080 28.16-29.44 28.16zM467.2 750.080c0 5.12 3.84 8.96 8.96 8.96h69.12c5.12 0 8.96-3.84 8.96-8.96v-83.2l-16.64-168.96c0-5.12-5.12-8.96-8.96-8.96h-37.12c-5.12 0-8.96 3.84-8.96 8.96l-16.64 168.96v83.2h1.28zM512 330.24c-32 0-52.48 21.76-52.48 53.76s20.48 53.76 52.48 53.76 52.48-21.76 52.48-53.76-20.48-53.76-52.48-53.76z" />
<glyph unicode="&#xe90e;" glyph-name="award-certified" d="M843.52 602.88l-25.6 39.68c-7.68 11.52-8.96 25.6-5.12 39.68l12.8 44.8c6.4 23.040-5.12 47.36-25.6 57.6l-42.24 19.2c-12.8 6.4-21.76 16.64-25.6 29.44l-12.8 44.8c-6.4 23.040-29.44 37.12-52.48 34.56l-46.080-6.4c-14.080-2.56-28.16 2.56-38.4 11.52l-35.84 30.72c-17.92 15.36-44.8 15.36-62.72 0l-35.84-30.72c-10.24-8.96-24.32-12.8-38.4-11.52l-46.080 6.4c-23.040 2.56-46.080-11.52-52.48-34.56l-12.8-44.8c-3.84-12.8-14.080-24.32-25.6-29.44l-42.24-19.2c-21.76-10.24-32-34.56-25.6-57.6l12.8-44.8c3.84-12.8 1.28-28.16-5.12-39.68l-25.6-39.68c-12.8-20.48-8.96-46.080 8.96-62.72l35.84-30.72c10.24-8.96 16.64-23.040 16.64-35.84v-47.36c0-24.32 17.92-43.52 40.96-47.36l46.080-6.4c14.080-2.56 25.6-10.24 33.28-21.76l25.6-39.68c12.8-20.48 39.68-28.16 61.44-17.92l42.24 19.2c12.8 5.12 26.88 5.12 39.68 0l43.52-19.2c21.76-10.24 47.36-2.56 60.16 17.92l25.6 39.68c7.68 11.52 19.2 19.2 33.28 21.76l47.36 6.4c23.040 3.84 40.96 24.32 40.96 47.36v47.36c0 14.080 6.4 26.88 16.64 35.84l35.84 30.72c11.52 16.64 15.36 42.24 2.56 62.72zM512 423.68c-111.36 0-200.96 89.6-200.96 200.96s89.6 200.96 200.96 200.96 200.96-89.6 200.96-200.96c0 0 0 0 0 0 0-111.36-89.6-200.96-200.96-200.96v0zM340.48 279.040l-23.040 35.84-42.24 6.4c-5.12 1.28-10.24 1.28-15.36 3.84l-149.76-293.12 121.6 6.4 66.56-102.4 153.6 296.96c-43.52-7.68-87.040 10.24-111.36 46.080zM764.16 325.12c-5.12-1.28-10.24-2.56-15.36-3.84l-42.24-6.4-23.040-35.84c-24.32-37.12-67.84-55.040-110.080-46.080l153.6-296.96 66.56 102.4 121.6-6.4-151.040 293.12zM512 748.8l40.96-83.2 92.16-14.080-66.56-65.28 15.36-92.16-81.92 44.8-81.92-43.52 15.36 92.16-66.56 65.28 92.16 14.080 40.96 81.92z" />
<glyph unicode="&#xe90f;" glyph-name="blog" d="M995.84 851.2h-967.68c-15.36 0-28.16-12.8-28.16-28.16v-561.92c0-15.36 12.8-28.16 28.16-28.16l165.12-1.28v-185.6h72.96l139.52 185.6 590.080 1.28c15.36 0 28.16 12.8 28.16 28.16v561.92c0 15.36-12.8 28.16-28.16 28.16zM183.040 739.84c0 7.68 5.12 12.8 12.8 12.8v0h615.68c7.68 0 12.8-5.12 12.8-12.8v-25.6c0-7.68-5.12-12.8-12.8-12.8h-618.24c-7.68 0-12.8 5.12-12.8 12.8v0l2.56 25.6zM183.040 620.8c0 7.68 5.12 12.8 12.8 12.8h495.36c7.68 0 12.8-5.12 12.8-12.8v-25.6c0-7.68-5.12-12.8-12.8-12.8h-497.92c-7.68 0-12.8 5.12-12.8 12.8l2.56 25.6zM500.48 355.84c0-7.68-5.12-12.8-12.8-12.8h-294.4c-7.68 0-12.8 5.12-12.8 12.8v25.6c0 7.68 5.12 12.8 12.8 12.8h294.4c7.68 0 12.8-5.12 12.8-12.8v-25.6zM578.56 474.88c0-7.68-5.12-12.8-12.8-12.8h-372.48c-7.68 0-12.8 5.12-12.8 12.8v0 25.6c0 7.68 5.12 12.8 12.8 12.8h372.48c7.68 0 12.8-5.12 12.8-12.8v-25.6zM884.48 561.92l-193.28-186.88-60.16-25.6c-3.84-1.28-8.96 0-11.52 3.84-1.28 1.28-1.28 5.12 0 7.68l28.16 60.16 193.28 192h3.84c7.68 0 16.64-3.84 21.76-8.96l11.52-11.52c3.84-10.24 7.68-19.2 6.4-30.72zM912.64 590.080l-11.52-11.52c-1.28 8.96-5.12 16.64-12.8 21.76l-11.52 11.52c-5.12 5.12-12.8 11.52-20.48 12.8l8.96 8.96c11.52 11.52 28.16 11.52 39.68 0l7.68-7.68c10.24-5.12 10.24-24.32 0-35.84 1.28 2.56 0 2.56 0 0v0z" />
<glyph unicode="&#xe910;" glyph-name="brake-fluid" d="M253.44 459.52c0-107.52 99.84-194.56 221.44-194.56 122.88 0 221.44 87.040 221.44 194.56s-99.84 194.56-221.44 194.56c-121.6 0-221.44-87.040-221.44-194.56zM476.16 305.92c-15.36 0-28.16 11.52-28.16 24.32s12.8 24.32 28.16 24.32c15.36 0 28.16-10.24 28.16-24.32-1.28-14.080-12.8-24.32-28.16-24.32zM628.48 483.84c15.36 0 28.16-11.52 28.16-24.32s-12.8-24.32-28.16-24.32c-15.36 0-28.16 11.52-28.16 24.32 0 14.080 12.8 24.32 28.16 24.32zM476.16 618.24c15.36 0 28.16-10.24 28.16-24.32 0-12.8-12.8-24.32-28.16-24.32s-28.16 11.52-28.16 24.32c0 12.8 12.8 24.32 28.16 24.32zM476.16 527.36c42.24 0 76.8-29.44 76.8-66.56s-34.56-66.56-76.8-66.56c-42.24 0-76.8 29.44-76.8 66.56 0 35.84 34.56 66.56 76.8 66.56zM350.72 459.52c0-12.8-12.8-24.32-28.16-24.32s-28.16 11.52-28.16 24.32c0 12.8 12.8 24.32 28.16 24.32s28.16-10.24 28.16-24.32zM984.32 488.96h-37.12c1.28-10.24 1.28-19.2 1.28-29.44 0-61.44-15.36-120.32-43.52-174.080-17.92 21.76-49.92 60.16-49.92 60.16 14.080 35.84 21.76 74.24 21.76 113.92 0 10.24 0 19.2-1.28 29.44-11.52 0-23.040 0-34.56 0-7.68 0-15.36 0-21.76 0-2.56 0-3.84 0-6.4 0-1.28 0-1.28 0-2.56 0-21.76 0-42.24 14.080-46.080 33.28 0 0 0 0 0 1.28s0 2.56-1.28 3.84c-1.28 3.84-2.56 8.96-3.84 12.8-3.84 14.080-8.96 28.16-14.080 40.96-6.4 14.080-12.8 26.88-19.2 35.84-7.68 10.24-19.2 21.76-33.28 33.28-10.24 7.68-20.48 15.36-30.72 21.76-3.84 2.56-7.68 5.12-10.24 6.4-1.28 1.28-2.56 1.28-2.56 1.28s-1.28 0-1.28 0c-19.2 10.24-25.6 33.28-16.64 51.2l23.040 43.52c-53.76 24.32-115.2 37.12-180.48 37.12-222.72 0-401.92-157.44-401.92-352s179.2-352 401.92-352c81.92 0 158.72 21.76 222.72 58.88-7.68-20.48-12.8-42.24-12.8-64 0-5.12 0-10.24 1.28-14.080-64-28.16-134.4-43.52-209.92-43.52-262.4 0-474.88 185.6-474.88 414.72s212.48 414.72 473.6 414.72v0c75.52 0 147.2-15.36 211.2-43.52l21.76 40.96c10.24 19.2 37.12 25.6 57.6 14.080v0c0 0 1.28-1.28 2.56-1.28 1.28-1.28 3.84-2.56 6.4-3.84 6.4-3.84 14.080-8.96 23.040-14.080 24.32-15.36 47.36-32 70.4-49.92 24.32-19.2 46.080-37.12 62.72-55.040 8.96-10.24 17.92-19.2 24.32-28.16 15.36-21.76 28.16-51.2 40.96-87.040 8.96-25.6 16.64-53.76 21.76-80.64 2.56-8.96 3.84-17.92 5.12-26.88 0-2.56 1.28-5.12 1.28-7.68 0-1.28 0-2.56 0-2.56 3.84-21.76-14.080-39.68-38.4-39.68zM957.44 104.96c0-56.32-52.48-101.12-116.48-101.12s-116.48 46.080-116.48 101.12c0 76.8 84.48 165.12 110.080 198.4 3.84 3.84 10.24 3.84 14.080 0 24.32-33.28 110.080-129.28 108.8-198.4z" />
<glyph unicode="&#xe911;" glyph-name="briefcase" d="M650.24 372.48v0 0l2.56-104.96c0-16.64-14.080-30.72-30.72-30.72h-30.72c0 0 0 0-2.56 0h-156.16c0 0 0 0-2.56 0h-28.16c-16.64 0-30.72 14.080-30.72 30.72v107.52h-239.36l-131.84 195.84v-528.64c0-16.64 14.080-30.72 30.72-30.72h963.84c16.64 0 30.72 14.080 30.72 30.72v528.64l-134.4-198.4h-240.64zM993.28 721.92h-258.56l2.56 131.84c0 16.64-14.080 30.72-30.72 30.72h-387.84c-16.64 0-30.72-14.080-30.72-30.72v-131.84h-259.84c-16.64 0-28.16-11.52-28.16-28.16v-2.56l170.24-254.72h682.24l170.24 254.72v2.56c-1.28 16.64-12.8 28.16-29.44 28.16zM633.6 721.92h-243.2v60.16h243.2v-60.16zM552.96 299.52c16.64 0 28.16 11.52 28.16 28.16v44.8h-135.68v-44.8c0-16.64 11.52-28.16 28.16-28.16h79.36z" />
<glyph unicode="&#xe912;" glyph-name="brochure" d="M976.64 953.6c-17.92 8.96-40.96 8.96-56.32-2.56-2.56 0-113.92-71.68-208.64-107.52-78.080-32-168.96-51.2-199.68-58.88-32 6.4-121.6 26.88-199.68 58.88-94.72 38.4-208.64 107.52-208.64 107.52-17.92 11.52-38.4 11.52-56.32 2.56s-29.44-29.44-29.44-49.92v-738.56c0-20.48 8.96-38.4 26.88-47.36 5.12-2.56 121.6-74.24 229.12-116.48s224-65.28 229.12-65.28v0c2.56 0 6.4 0 8.96 0s6.4 0 8.96 0c5.12 0 121.6 23.040 229.12 65.28s222.72 113.92 229.12 116.48c15.36 11.52 26.88 29.44 26.88 47.36v738.56c0 20.48-11.52 38.4-29.44 49.92zM128 198.4v609.28c42.24-23.040 94.72-49.92 142.080-67.84 65.28-26.88 139.52-44.8 184.32-56.32v-622.080c-40.96 8.96-92.16 24.32-142.080 44.8-67.84 25.6-143.36 67.84-184.32 92.16zM893.44 198.4c-38.4-23.040-113.92-65.28-184.32-92.16-49.92-20.48-101.12-33.28-142.080-44.8v622.080c44.8 11.52 119.040 29.44 184.32 56.32 49.92 20.48 101.12 44.8 142.080 67.84v-609.28z" />
<glyph unicode="&#xe913;" glyph-name="business-customers" d="M709.12 490.24c0 19.2-35.84 28.16-56.32 28.16-2.56 0-6.4 0-7.68-1.28-7.68-1.28-7.68-15.36-7.68-24.32-1.28 1.28-2.56 5.12-2.56 6.4 0-1.28 0-5.12 0-6.4-2.56 5.12-5.12 7.68-5.12 8.96l-57.6 112.64c-1.28 2.56-2.56 5.12-5.12 6.4-7.68 7.68-24.32 23.040-208.64 23.040s-199.68-15.36-207.36-23.040c-1.28-1.28-2.56-5.12-5.12-6.4l-58.88-112.64-10.24-20.48c0 1.28 0 5.12 0 6.4l-2.56-6.4c0 8.96 1.28 26.88-7.68 29.44-1.28 0-2.56 0-6.4 1.28-23.040-1.28-60.16-8.96-60.16-29.44 0-21.76 38.4-24.32 53.76-24.32 1.28 0 2.56 0 2.56 0v0c1.28 0 2.56 0 2.56 0v0l-2.56-6.4c-5.12-10.24-10.24-16.64-16.64-26.88-23.040-35.84-26.88-52.48-26.88-52.48s-2.56-143.36-2.56-147.2v-120.32c0-7.68 6.4-12.8 12.8-12.8h71.68c7.68 0 12.8 6.4 12.8 12.8v52.48h504.32v-52.48c0-7.68 6.4-12.8 12.8-12.8h71.68c7.68 0 12.8 6.4 12.8 12.8v122.88l-3.84 143.36c0 0-2.56 16.64-26.88 52.48-6.4 8.96-10.24 15.36-16.64 26.88 0 0-2.56 6.4-7.68 14.080 1.28 0 1.28 0 2.56 0v0h1.28c14.080 1.28 51.2 3.84 51.2 25.6zM136.96 490.24l48.64 93.44c15.36 5.12 66.56 8.96 174.080 8.96 101.12 0 156.16-5.12 174.080-8.96l48.64-93.44c2.56-7.68-1.28-15.36-8.96-15.36h-427.52c-8.96 0-14.080 8.96-8.96 15.36zM145.92 296.96l-96 15.36c0 0-6.4 28.16 7.68 60.16 15.36 32 119.040-29.44 119.040-29.44l16.64-38.4-47.36-7.68zM353.28 294.4c-16.64 0-30.72 14.080-30.72 30.72s14.080 30.72 30.72 30.72c16.64 0 30.72-14.080 30.72-30.72s-12.8-30.72-30.72-30.72zM650.24 372.48c15.36-32 7.68-60.16 7.68-60.16l-96-15.36-48.64 7.68 16.64 38.4c2.56 0 106.24 62.72 120.32 29.44zM1016.32 532.48c0 0-2.56 16.64-26.88 52.48-6.4 8.96-10.24 15.36-16.64 26.88 0 0-2.56 6.4-7.68 14.080 10.24 0 58.88 0 58.88 24.32 0 23.040-53.76 30.72-66.56 28.16-7.68-1.28-7.68-15.36-7.68-24.32-2.56 5.12-5.12 7.68-5.12 8.96l-60.16 111.36c-1.28 2.56-2.56 5.12-5.12 6.4-7.68 7.68-24.32 23.040-211.2 23.040s-199.68-15.36-209.92-23.040c-1.28-1.28-2.56-5.12-5.12-6.4l-42.24-81.92c21.76 0 39.68-1.28 57.6-1.28l26.88 52.48c15.36 5.12 66.56 8.96 174.080 8.96 101.12 0 156.16-5.12 174.080-8.96l48.64-93.44c2.56-7.68-1.28-15.36-8.96-15.36h-264.96l35.84-67.84h1.28c51.2 0 103.68-24.32 103.68-74.24 0-16.64-6.4-32-19.2-44.8-2.56-2.56-7.68-6.4-12.8-8.96 19.2-29.44 23.040-48.64 23.040-56.32v-5.12l1.28-57.6h165.12v-52.48c0-7.68 6.4-12.8 12.8-12.8h74.24c7.68 0 12.8 6.4 12.8 12.8v264.96zM971.52 471.040l-96-15.36-48.64 7.68 16.64 38.4c0 0 103.68 61.44 119.040 29.44 16.64-30.72 8.96-60.16 8.96-60.16z" />
<glyph unicode="&#xe914;" glyph-name="buy-a-volkswagen" d="M1020.16 430.080l-28.16 21.76c-3.84 2.56-8.96 2.56-11.52-1.28l-231.68-259.84-119.040 74.24c-3.84 2.56-8.96 1.28-11.52-1.28l-23.040-26.88c-2.56-3.84-2.56-8.96 1.28-11.52 0 0 0 0 0 0l156.16-124.16c3.84-2.56 8.96-2.56 12.8 1.28l257.28 317.44c2.56 1.28 1.28 6.4-2.56 10.24 0 0 0 0 0 0zM545.28 211.2c-1.28 3.84-2.56 8.96-3.84 14.080-1.28 15.36 3.84 30.72 14.080 42.24l23.040 26.88c17.92 21.76 49.92 25.6 72.96 11.52l84.48-52.48 122.88 138.24-1.28 79.36c-6.4 23.040-17.92 44.8-32 64-7.68 11.52-14.080 19.2-21.76 30.72 0 0-3.84 7.68-10.24 16.64 12.8 0 70.4 0 70.4 29.44s-65.28 37.12-80.64 33.28c-8.96-2.56-10.24-19.2-10.24-30.72-2.56 5.12-5.12 8.96-6.4 10.24l-71.68 138.24c-1.28 2.56-3.84 6.4-6.4 8.96-8.96 8.96-29.44 28.16-254.72 28.16s-244.48-19.2-254.72-28.16c-2.56-2.56-5.12-5.12-6.4-8.96l-69.12-138.24-14.080-24.32c1.28 11.52 1.28 32-8.96 35.84-15.36 3.84-80.64-3.84-80.64-33.28 0-33.28 72.96-29.44 72.96-29.44l1.28-1.28-3.84-6.4c-7.68-12.8-14.080-20.48-21.76-30.72-14.080-19.2-25.6-40.96-34.56-64 0 0-6.4-174.080-6.4-177.92v-138.24c1.28-15.36 14.080-26.88 28.16-28.16h74.24c14.080 1.28 24.32 12.8 24.32 25.6v56.32l410.88 2.56zM432.64 372.48c-21.76 0-38.4 16.64-38.4 38.4s16.64 38.4 38.4 38.4c21.76 0 38.4-16.64 38.4-38.4 0-20.48-16.64-38.4-38.4-38.4zM793.6 469.76c10.24-23.040 14.080-48.64 10.24-74.24l-116.48-19.2-57.6 10.24 20.48 47.36c-1.28-1.28 125.44 75.52 143.36 35.84v0zM167.68 613.12l56.32 108.8c19.2 5.12 80.64 11.52 209.92 11.52 121.6 0 189.44-6.4 211.2-11.52l58.88-108.8c3.84-6.4 1.28-14.080-5.12-17.92-1.28-1.28-3.84-1.28-6.4-1.28h-512c-7.68 0-12.8 5.12-12.8 12.8-1.28 1.28 0 3.84 0 6.4zM62.72 395.52c-5.12 25.6-1.28 51.2 10.24 74.24 17.92 39.68 144.64-37.12 144.64-37.12l20.48-47.36-58.88-8.96-116.48 19.2z" />
<glyph unicode="&#xe915;" glyph-name="calculate" d="M865.28 928c0 16.64-15.36 32-32 32h-642.56c-16.64 0-32-15.36-32-32v-960c0-16.64 15.36-32 32-32h642.56c16.64 0 32 15.36 32 32v960zM266.24 852.48h492.8v-235.52h-492.8c0 0 0 235.52 0 235.52zM396.8 21.76h-133.12v133.12h133.12v-133.12zM396.8 197.12h-133.12v133.12h133.12v-133.12zM396.8 375.040h-133.12v133.12h133.12v-133.12zM578.56 21.76h-133.12v133.12h133.12v-133.12zM578.56 197.12h-133.12v133.12h133.12v-133.12zM578.56 375.040h-133.12v133.12h133.12v-133.12zM760.32 21.76h-133.12v133.12h133.12v-133.12zM760.32 197.12h-133.12v133.12h133.12v-133.12zM760.32 375.040h-133.12v133.12h133.12v-133.12z" />
<glyph unicode="&#xe916;" glyph-name="calendar" d="M509.44 719.36c23.040 0 42.24 19.2 42.24 44.8v131.84c0 25.6-19.2 44.8-42.24 44.8-23.040-1.28-42.24-19.2-42.24-44.8v-133.12c0-25.6 19.2-43.52 42.24-43.52zM792.32 719.36c23.040 0 42.24 19.2 42.24 44.8v131.84c0 25.6-19.2 44.8-42.24 44.8s-42.24-19.2-42.24-44.8v-133.12c0-25.6 19.2-43.52 42.24-43.52zM229.12 719.36c23.040 0 42.24 19.2 42.24 44.8v131.84c0 25.6-19.2 44.8-42.24 44.8s-40.96-19.2-40.96-44.8v-133.12c0-25.6 17.92-43.52 40.96-43.52zM899.84 778.24v-15.36c0-58.88-48.64-107.52-107.52-107.52s-107.52 48.64-107.52 107.52v15.36h-65.28v-15.36c0-58.88-48.64-107.52-107.52-107.52s-107.52 48.64-107.52 107.52v15.36h-65.28v-15.36c0-58.88-48.64-107.52-107.52-107.52s-107.52 48.64-107.52 107.52v15.36h-124.16v-821.76h1024v821.76h-124.16zM354.56 84.48h-188.16v192h188.16v-192zM354.56 339.2h-188.16v192h188.16v-192zM604.16 84.48h-186.88v192h188.16v-192zM604.16 339.2h-186.88v192h188.16v-192zM855.040 84.48h-186.88v192h188.16v-192zM855.040 339.2h-186.88v192h188.16v-192z" />
<glyph unicode="&#xe917;" glyph-name="calendar-appointment" d="M509.44 719.36c23.040 0 42.24 19.2 42.24 44.8v131.84c0 25.6-19.2 44.8-42.24 44.8-23.040-1.28-42.24-19.2-42.24-44.8v-133.12c0-25.6 19.2-43.52 42.24-43.52zM792.32 719.36c23.040 0 42.24 19.2 42.24 44.8v131.84c0 25.6-19.2 44.8-42.24 44.8s-42.24-19.2-42.24-44.8v-133.12c0-25.6 19.2-43.52 42.24-43.52zM229.12 719.36c23.040 0 42.24 19.2 42.24 44.8v131.84c0 25.6-19.2 44.8-42.24 44.8s-42.24-19.2-42.24-44.8v-133.12c1.28-25.6 19.2-43.52 42.24-43.52zM899.84 778.24v-15.36c0-58.88-48.64-107.52-107.52-107.52s-107.52 48.64-107.52 107.52v15.36h-65.28v-15.36c0-58.88-48.64-107.52-107.52-107.52s-107.52 48.64-107.52 107.52v15.36h-65.28v-15.36c0-58.88-48.64-107.52-107.52-107.52s-107.52 48.64-107.52 107.52v15.36h-124.16v-821.76h1024v821.76c0 0-124.16 0-124.16 0zM354.56 84.48h-188.16v192h188.16v-192zM354.56 339.2h-188.16v192h188.16v-192zM604.16 84.48h-186.88v192h188.16v-192zM604.16 339.2h-186.88v192h188.16v-192zM855.040 84.48h-186.88v192h188.16v-192zM855.040 339.2h-186.88v192h188.16v-192z" />
<glyph unicode="&#xe918;" glyph-name="calendar-export" d="M170.24 729.6c16.64 0 30.72 14.080 30.72 32v98.56c0 19.2-14.080 32-30.72 32s-30.72-14.080-30.72-32v-97.28c0-19.2 14.080-33.28 30.72-33.28zM376.32 734.72c16.64 0 30.72 14.080 30.72 32v98.56c0 19.2-14.080 32-30.72 32s-30.72-14.080-30.72-32v-97.28c0-19.2 14.080-33.28 30.72-33.28zM582.4 734.72c16.64 0 30.72 14.080 30.72 32v98.56c0 19.2-14.080 32-30.72 32s-30.72-14.080-30.72-32v-97.28c0-19.2 14.080-33.28 30.72-33.28zM360.96 254.72h-53.76v140.8h138.24v-69.12c21.76 14.080 43.52 26.88 66.56 35.84v34.56h96c32 8.96 64 15.36 89.6 19.2v61.44c0 34.56 24.32 61.44 56.32 67.84v232.96h-90.88v-10.24c0-43.52-35.84-79.36-79.36-79.36s-79.36 35.84-79.36 79.36v10.24h-48.64v-10.24c0-43.52-35.84-79.36-79.36-79.36s-79.36 35.84-79.36 79.36v10.24h-48.64v-15.36c0-43.52-35.84-79.36-79.36-79.36s-79.36 35.84-79.36 79.36v15.36h-89.6v-604.16h295.68c17.92 24.32 39.68 52.48 65.28 80.64zM512 595.2h138.24v-140.8h-138.24c0 0 0 140.8 0 140.8zM308.48 595.2h138.24v-140.8h-138.24v140.8zM241.92 254.72h-138.24v140.8h138.24v-140.8zM241.92 455.68h-138.24v140.8h138.24v-140.8zM1017.6 279.040l-247.040 212.48c-2.56 2.56-6.4 5.12-10.24 5.12-7.68 0-15.36-6.4-15.36-15.36v-110.080c-67.84-6.4-232.96-30.72-337.92-134.4-135.68-134.4-133.12-238.080-133.12-238.080h21.76c0 0 75.52 104.96 220.16 148.48 97.28 29.44 183.040 34.56 227.84 34.56h1.28v-130.56c0-8.96 7.68-15.36 15.36-15.36 2.56 0 7.68 1.28 10.24 5.12l247.040 212.48c8.96 5.12 8.96 19.2 0 25.6z" />
<glyph unicode="&#xe919;" glyph-name="california" d="M1007.36 266.24c1.28 48.64-1.28 97.28-5.12 144.64-6.4 35.84-16.64 71.68-32 104.96-6.4 8.96-15.36 15.36-25.6 17.92h-21.76l-38.4 61.44 48.64 1.28-16.64 34.56-583.68 142.080-48.64-11.52 10.24-39.68 43.52-12.8v-181.76h-56.32l-120.32-102.4-48.64-12.8c0 0-90.88-76.8-94.72-80.64-1.28-23.040-1.28-47.36 0-70.4l-17.92-3.84v-33.28l29.44-34.56 79.36-2.56c6.4-40.96 43.52-67.84 84.48-61.44 29.44 5.12 53.76 26.88 60.16 56.32l23.040-1.28h483.84c8.96-39.68 49.92-64 89.6-55.040 29.44 6.4 51.2 30.72 56.32 60.16h87.040c10.24 10.24 17.92 21.76 23.040 34.56 5.12 14.080 7.68 28.16 7.68 42.24l-16.64 3.84z" />
<glyph unicode="&#xe91a;" glyph-name="camera" d="M514.56 569.6c85.76 0 156.16-69.12 156.16-156.16s-69.12-154.88-156.16-154.88-156.16 69.12-156.16 156.16 70.4 154.88 156.16 154.88zM994.56 736h-248.32l-11.52 43.52c-1.28 15.36-14.080 26.88-29.44 29.44h-385.28c-15.36-1.28-26.88-14.080-29.44-29.44l-11.52-43.52h-249.6c-16.64 0-29.44-12.8-29.44-29.44v-590.080c0-16.64 12.8-29.44 29.44-29.44h965.12c16.64 0 29.44 12.8 29.44 29.44v590.080c0 16.64-12.8 29.44-29.44 29.44zM514.56 199.68c-117.76 0-213.76 96-213.76 213.76s96 215.040 213.76 215.040 215.040-96 215.040-215.040v0c0-117.76-96-213.76-215.040-213.76zM892.16 551.68c-29.44 0-53.76 24.32-53.76 53.76s24.32 53.76 53.76 53.76c29.44 0 53.76-24.32 53.76-53.76s-24.32-53.76-53.76-53.76v0z" />
<glyph unicode="&#xe91b;" glyph-name="car-net" d="M508.16 408.32c-21.76 0-39.68 17.92-39.68 39.68s17.92 39.68 39.68 39.68c21.76 0 39.68-17.92 39.68-39.68s-17.92-39.68-39.68-39.68zM753.92 629.76c8.96 7.68 10.24 20.48 2.56 29.44-5.12 5.12-7.68 8.96-12.8 14.080-61.44 66.56-148.48 103.68-238.080 103.68-83.2 0-162.56-30.72-222.72-88.32-5.12-5.12-10.24-8.96-15.36-15.36-7.68-7.68-7.68-21.76 1.28-29.44 7.68-7.68 21.76-7.68 29.44 1.28 5.12 5.12 7.68 8.96 12.8 12.8 52.48 49.92 121.6 76.8 193.28 76.8 79.36 0 154.88-32 207.36-90.88 2.56-5.12 7.68-7.68 10.24-12.8 5.12-5.12 8.96-7.68 15.36-7.68 8.96 1.28 12.8 2.56 16.64 6.4zM682.24 564.48c8.96 7.68 10.24 20.48 2.56 29.44-1.28 2.56-5.12 5.12-6.4 7.68-43.52 49.92-106.24 79.36-172.8 79.36-60.16 0-119.040-23.040-160-66.56-5.12-5.12-7.68-7.68-12.8-12.8-7.68-8.96-6.4-21.76 1.28-29.44 8.96-7.68 21.76-6.4 29.44 1.28 2.56 2.56 6.4 7.68 8.96 10.24 35.84 35.84 81.92 53.76 133.12 53.76 53.76 0 106.24-24.32 142.080-66.56 1.28-1.28 2.56-5.12 5.12-6.4 5.12-5.12 10.24-7.68 16.64-7.68 5.12 2.56 10.24 5.12 12.8 7.68zM431.36 504.32c16.64 24.32 44.8 39.68 75.52 39.68s58.88-15.36 75.52-39.68c6.4-8.96 17.92-12.8 29.44-6.4 8.96 6.4 12.8 17.92 6.4 29.44-24.32 37.12-66.56 58.88-110.080 58.88-44.8 0-84.48-21.76-110.080-58.88-6.4-8.96-5.12-21.76 6.4-29.44 2.56-2.56 7.68-2.56 10.24-2.56 5.12 0 12.8 2.56 16.64 8.96zM981.76 304.64v-34.56h42.24v-30.72h-42.24v-69.12c0-10.24 6.4-16.64 16.64-16.64 6.4 0 16.64 1.28 23.040 5.12v-34.56c-6.4-1.28-20.48-5.12-34.56-5.12-32 0-47.36 14.080-47.36 43.52v75.52h-26.88v21.76l26.88 8.96v34.56h42.24v1.28zM806.4 185.6c1.28-20.48 15.36-32 37.12-32 16.64 0 32 5.12 46.080 8.96l8.96-29.44c-14.080-7.68-35.84-12.8-58.88-12.8-51.2 0-75.52 34.56-75.52 76.8s24.32 76.8 72.96 76.8c47.36 0 67.84-29.44 67.84-62.72 0-8.96-1.28-21.76-1.28-26.88h-97.28zM867.84 211.2c0 1.28 0 2.56 0 5.12 0 16.64-7.68 29.44-30.72 29.44-20.48 0-30.72-16.64-32-34.56h62.72zM693.76 189.44v142.080h42.24v-204.8h-44.8l-87.040 140.8h-1.28v-140.8h-42.24v204.8h44.8l87.040-142.080h1.28zM439.040 195.84v30.72h87.040v-30.72h-87.040zM375.040 271.36l6.4-16.64c6.4 8.96 16.64 21.76 37.12 21.76 5.12 0 10.24-1.28 14.080-1.28l-2.56-34.56c-5.12 1.28-10.24 1.28-14.080 1.28-16.64 0-26.88-7.68-32-14.080v-102.4h-39.68v145.92h30.72zM304.64 157.44c0-5.12 0-6.4 5.12-6.4h10.24v-26.88c-6.4-1.28-12.8-1.28-21.76-1.28-15.36 0-23.040 6.4-29.44 16.64v0c-8.96-7.68-29.44-17.92-46.080-17.92-32 0-49.92 20.48-49.92 46.080 0 32 20.48 47.36 72.96 47.36h20.48v6.4c0 17.92-15.36 21.76-24.32 21.76-15.36 0-34.56-5.12-47.36-10.24l-8.96 30.72c15.36 7.68 37.12 12.8 60.16 12.8 42.24 0 61.44-21.76 61.44-58.88v-60.16h-2.56zM248.32 188.16c-26.88 0-37.12-7.68-37.12-17.92 0-12.8 6.4-16.64 20.48-16.64 10.24 0 24.32 5.12 34.56 8.96v24.32h-16.64v1.28zM99.84 336.64c17.92 0 38.4-5.12 58.88-14.080l-10.24-34.56c-16.64 7.68-30.72 10.24-47.36 10.24-37.12 0-55.040-29.44-55.040-71.68 0-43.52 20.48-71.68 55.040-71.68 16.64 0 29.44 2.56 47.36 10.24l10.24-34.56c-17.92-8.96-38.4-14.080-58.88-14.080-65.28 0-99.84 43.52-99.84 106.24 1.28 70.4 37.12 113.92 99.84 113.92z" />
<glyph unicode="&#xe91c;" glyph-name="car-rental" d="M357.12 437.76c-78.080 8.96-139.52 69.12-147.2 147.2v34.56c7.68 78.080 69.12 139.52 147.2 148.48h34.56c78.080-7.68 140.8-70.4 148.48-148.48v-34.56c-3.84-37.12-19.2-70.4-44.8-97.28 8.96 1.28 19.2 3.84 28.16 3.84 26.88 1.28 52.48 2.56 79.36 3.84 58.88 125.44 5.12 275.2-120.32 335.36s-275.2 5.12-335.36-120.32c-57.6-121.6-8.96-266.24 110.080-328.96zM1002.24 229.12v53.76c-8.96 23.040-20.48 44.8-34.56 65.28-12.8 19.2-25.6 37.12-40.96 53.76v16.64c-85.76 12.8-171.52 17.92-257.28 16.64-43.52 0-92.16-1.28-143.36-5.12-96-6.4-253.44-112.64-253.44-112.64s-142.080-15.36-211.2-48.64c-23.040-15.36-42.24-37.12-52.48-62.72l-8.96-6.4v-32l11.52-7.68v-47.36l112.64-16.64h8.96c10.24-39.68 51.2-62.72 89.6-51.2 25.6 7.68 46.080 28.16 52.48 55.040l480 10.24c3.84-40.96 39.68-70.4 79.36-66.56 37.12 2.56 65.28 33.28 66.56 70.4l80.64 1.28c12.8 7.68 23.040 17.92 30.72 30.72 5.12 24.32 8.96 48.64 8.96 72.96l-19.2 10.24zM471.040 622.080l-10.24 19.2-64-26.88c-1.28 1.28-3.84 2.56-5.12 2.56l-5.12 112.64h-21.76l-5.12-112.64c-16.64-8.96-21.76-30.72-12.8-47.36s30.72-21.76 47.36-12.8c10.24 6.4 16.64 16.64 16.64 28.16v0l60.16 37.12z" />
<glyph unicode="&#xe91d;" glyph-name="carwash" d="M924.16 93.44l-5.12 170.24c-6.4 21.76-16.64 42.24-30.72 60.16-7.68 11.52-12.8 17.92-20.48 30.72l-8.96 15.36c11.52 0 67.84 0 67.84 28.16s-62.72 35.84-76.8 30.72c-8.96-2.56-10.24-17.92-8.96-29.44-2.56 5.12-5.12 8.96-5.12 10.24l-67.84 131.84c-1.28 2.56-3.84 5.12-6.4 7.68-8.96 8.96-28.16 26.88-244.48 26.88s-236.8-17.92-245.76-25.6c-2.56-2.56-3.84-5.12-6.4-7.68l-67.84-133.12-14.080-23.040c1.28 10.24 1.28 30.72-8.96 34.56-14.080 3.84-76.8-3.84-76.8-30.72 0-30.72 70.4-28.16 70.4-28.16h1.28l-3.84-6.4c-7.68-11.52-12.8-19.2-20.48-30.72-14.080-17.92-24.32-38.4-30.72-60.16 0 0-3.84-168.96-2.56-172.8v-131.84c0-12.8 10.24-23.040 23.040-23.040h69.12c12.8 0 23.040 10.24 23.040 23.040v52.48h581.12v-53.76c0-12.8 10.24-23.040 23.040-23.040h70.4c12.8 0 23.040 10.24 23.040 23.040v65.28c0 34.56 0 69.12 0 69.12zM258.56 398.080l53.76 104.96c19.2 5.12 76.8 11.52 200.96 11.52 116.48 0 181.76-6.4 202.24-11.52l56.32-104.96c3.84-6.4 1.28-14.080-5.12-16.64-1.28-1.28-3.84-1.28-6.4-1.28h-490.24c-6.4 0-12.8 5.12-12.8 12.8 0 0 1.28 2.56 1.28 5.12zM270.080 171.52l-112.64 19.2c-3.84 24.32-1.28 48.64 8.96 70.4 17.92 37.12 138.24-34.56 138.24-34.56l20.48-44.8-55.040-10.24zM513.28 167.68c-20.48 0-37.12 16.64-37.12 37.12s16.64 37.12 37.12 37.12c20.48 0 37.12-16.64 37.12-37.12v0c-1.28-20.48-16.64-37.12-37.12-37.12v0zM755.2 171.52l-55.040 8.96 20.48 44.8c0 0 120.32 72.96 138.24 34.56 10.24-21.76 14.080-47.36 8.96-70.4l-112.64-17.92zM565.76 942.080c-2.56-6.4-1.28-12.8 1.28-19.2l47.36-88.32c6.4-11.52 21.76-16.64 33.28-10.24s16.64 21.76 10.24 33.28l-46.080 88.32c-6.4 11.52-21.76 16.64-33.28 10.24-6.4-2.56-10.24-7.68-12.8-14.080zM660.48 766.72c-2.56-6.4-1.28-12.8 1.28-19.2l46.080-88.32c6.4-11.52 21.76-16.64 33.28-10.24s16.64 21.76 10.24 33.28l-46.080 88.32c-6.4 11.52-21.76 16.64-33.28 10.24-5.12-2.56-10.24-7.68-11.52-14.080zM458.24 922.88c6.4 12.8 2.56 28.16-10.24 34.56-11.52 6.4-26.88 1.28-33.28-10.24v0l-46.080-88.32c-6.4-11.52-1.28-26.88 10.24-33.28s26.88-1.28 33.28 10.24l46.080 87.040zM364.8 747.52c6.4 11.52 1.28 26.88-10.24 33.28s-26.88 1.28-33.28-10.24v0l-46.080-88.32c-6.4-11.52-1.28-26.88 10.24-33.28s26.88-1.28 33.28 10.24v0l46.080 88.32zM513.28 810.24c14.080 0 24.32 11.52 25.6 24.32 0 0 0 0 0 0v101.12c-1.28 12.8-11.52 24.32-25.6 24.32s-24.32-11.52-24.32-24.32v0-99.84c-1.28-14.080 10.24-25.6 24.32-25.6v0zM537.6 648.96v99.84c0 14.080-11.52 24.32-24.32 24.32-14.080 0-24.32-11.52-24.32-24.32v-99.84c0-14.080 11.52-24.32 24.32-24.32 12.8-1.28 24.32 10.24 24.32 24.32z" />
<glyph unicode="&#xe91e;" glyph-name="checkmark" d="M1016.32 814.080l-65.28 53.76c-7.68 6.4-20.48 6.4-28.16-2.56l-552.96-619.52-282.88 174.080c-7.68 6.4-20.48 3.84-26.88-3.84l-55.040-64c-7.68-7.68-6.4-23.040 2.56-28.16l373.76-295.68c7.68-6.4 23.040-6.4 28.16 3.84l610.56 752.64c6.4 8.96 3.84 21.76-3.84 29.44z" />
<glyph unicode="&#xe91f;" glyph-name="clip" d="M305.92-64c-65.28 0-131.84 25.6-181.76 75.52-99.84 99.84-99.84 263.68 0 363.52l529.92 529.92c72.96 72.96 193.28 72.96 266.24 0 35.84-35.84 55.040-83.2 55.040-133.12s-19.2-97.28-55.040-133.12l-424.96-423.68c-21.76-23.040-51.2-35.84-83.2-35.84s-61.44 12.8-84.48 34.56c-46.080 46.080-46.080 121.6 0 168.96l346.88 346.88c16.64 16.64 44.8 16.64 61.44 0s16.64-44.8 0-61.44l-346.88-346.88c-12.8-12.8-12.8-33.28 0-46.080 11.52-11.52 33.28-11.52 46.080 0l423.68 423.68c19.2 19.2 29.44 44.8 29.44 71.68s-10.24 52.48-29.44 71.68c-39.68 40.96-103.68 40.96-143.36 1.28l-529.92-529.92c-66.56-66.56-66.56-175.36 0-241.92s175.36-66.56 241.92 0l439.040 440.32c16.64 16.64 44.8 16.64 61.44 0s16.64-44.8 0-61.44l-440.32-439.040c-49.92-49.92-115.2-75.52-181.76-75.52z" />
<glyph unicode="&#xe920;" glyph-name="clock-time" d="M512 960c-282.88 0-512-229.12-512-512s229.12-512 512-512c282.88 0 512 229.12 512 512s-229.12 512-512 512zM512 32c-229.12 0-416 186.88-416 416s186.88 416 416 416 416-186.88 416-416c0 0 0 0 0 0-1.28-229.12-186.88-414.72-416-416v0zM747.52 729.6l-189.44-190.72 6.4 162.56-51.2 5.12-33.28-197.12c-42.24-17.92-62.72-66.56-44.8-108.8s66.56-62.72 108.8-44.8c40.96 16.64 61.44 64 46.080 104.96l193.28 234.24-35.84 34.56z" />
<glyph unicode="&#xe921;" glyph-name="close" d="M1012.48 93.44l-341.76 352 339.2 357.12c15.36 15.36 12.8 39.68 0 55.040l-84.48 84.48c-15.36 15.36-39.68 15.36-55.040 0l-358.4-343.040-354.56 344.32c-15.36 15.36-39.68 15.36-55.040 0l-85.76-85.76c-15.36-15.36-15.36-39.68 0-55.040l336.64-357.12-341.76-352c-15.36-15.36-15.36-39.68 0-55.040l84.48-84.48c15.36-15.36 39.68-15.36 55.040 0l360.96 335.36 359.68-336.64c15.36-15.36 39.68-12.8 55.040 0l84.48 84.48c16.64 16.64 16.64 40.96 1.28 56.32z" />
<glyph unicode="&#xe922;" glyph-name="commercial-vehicles" d="M998.4 491.52l-1.28 32-24.32 115.2c-3.84 7.68-6.4 16.64-11.52 24.32-5.12 5.12-11.52 6.4-19.2 7.68h-526.080c-24.32-1.28-48.64-5.12-72.96-10.24-16.64-7.68-32-16.64-47.36-25.6l-128-99.84-7.68-1.28-126.72-53.76-19.2-23.040-3.84-37.12-7.68-10.24-2.56-74.24 5.12-12.8 25.6-12.8h40.96l38.4-7.68c1.28-42.24 35.84-75.52 79.36-75.52 42.24 1.28 75.52 35.84 75.52 79.36h485.12c0-43.52 35.84-78.080 78.080-78.080 43.52 0 78.080 35.84 78.080 78.080 0 6.4 0 11.52-1.28 17.92h119.040v29.44l-16.64 19.2-8.96 119.040z" />
<glyph unicode="&#xe923;" glyph-name="compass" d="M742.4 677.12c-5.12 5.12-15.36 7.68-23.040 1.28l-207.36-128-102.4-101.12-131.84-206.080c-5.12-7.68-3.84-16.64 1.28-23.040l1.28-1.28c5.12-5.12 15.36-7.68 23.040-1.28l208.64 128 102.4 101.12 129.28 206.080c7.68 7.68 6.4 16.64-1.28 24.32v0zM508.16 392.96l-20.48-20.48-138.24-97.28c-7.68-3.84-15.36 3.84-11.52 11.52l99.84 134.4c0 0 0 1.28 1.28 1.28l19.2 19.2c3.84 3.84 7.68 3.84 11.52 0l39.68-39.68c1.28-1.28 1.28-7.68-1.28-8.96zM512 960c-280.32 0-510.72-230.4-510.72-513.28 0-280.32 230.4-510.72 510.72-510.72s510.72 230.4 510.72 510.72c2.56 282.88-227.84 513.28-510.72 513.28zM512 48.64c-221.44 0-399.36 179.2-399.36 399.36s180.48 399.36 399.36 399.36 399.36-179.2 399.36-399.36-177.92-399.36-399.36-399.36z" />
<glyph unicode="&#xe924;" glyph-name="configuration-details" d="M126.72 943.36c53.76 0 97.28-43.52 97.28-97.28s-43.52-97.28-97.28-97.28-97.28 43.52-97.28 97.28 43.52 97.28 97.28 97.28zM279.040 220.16v79.36c0 8.96-7.68 16.64-16.64 16.64h-53.76v357.12c0 8.96-7.68 14.080-14.080 14.080h-172.8c-8.96 0-16.64-7.68-14.080-16.64l8.96-94.72h53.76v-258.56h-53.76c-8.96 0-16.64-7.68-16.64-16.64v-79.36c0-10.24 7.68-16.64 16.64-16.64h247.040c7.68 0 15.36 6.4 15.36 15.36zM1015.040 337.92c0 0-3.84 23.040-35.84 70.4-8.96 12.8-14.080 21.76-23.040 34.56 0 0-5.12 7.68-10.24 17.92 14.080 0 79.36 0 79.36 32s-74.24 42.24-90.88 35.84c-10.24-3.84-10.24-21.76-10.24-34.56-3.84 5.12-5.12 10.24-7.68 12.8l-79.36 156.16c-1.28 3.84-3.84 7.68-7.68 8.96-10.24 10.24-32 30.72-288 30.72-126.72 0-240.64-5.12-279.040-12.8v-70.4c26.88 5.12 144.64 12.8 279.040 12.8 138.24 0 212.48-7.68 236.8-12.8l65.28-126.72c5.12-8.96-1.28-21.76-12.8-21.76h-568.32v-87.040c39.68-5.12 70.4-38.4 70.4-79.36v-79.36c0-43.52-35.84-79.36-79.36-79.36h-188.16c0-7.68 0-166.4 0-166.4 0-14.080 12.8-26.88 26.88-26.88h83.2c14.080 0 26.88 12.8 26.88 26.88v64h680.96v-60.16c0-14.080 12.8-26.88 26.88-26.88h83.2c14.080 0 26.88 12.8 26.88 26.88l-5.12 354.56zM538.88 227.84c-23.040 0-43.52 20.48-43.52 43.52s20.48 43.52 43.52 43.52 43.52-20.48 43.52-43.52c0-23.040-20.48-43.52-43.52-43.52zM823.040 231.68l-65.28 10.24 23.040 52.48c0 0 140.8 85.76 162.56 42.24 20.48-43.52 10.24-83.2 10.24-83.2l-130.56-21.76z" />
<glyph unicode="&#xe925;" glyph-name="configuration-load" d="M1020.16 807.68c-5.12 0-76.8-1.28-170.24-96-75.52-76.8-93.44-195.84-97.28-244.48h-78.080c-10.24 0-15.36-11.52-8.96-19.2l153.6-179.2c3.84-3.84 6.4-5.12 10.24-5.12s6.4 1.28 10.24 5.12l153.6 179.2c6.4 6.4 1.28 19.2-8.96 19.2h-93.44c0 32 3.84 93.44 25.6 165.12 30.72 106.24 107.52 160 107.52 160l-3.84 15.36zM876.8 236.8c-11.52-14.080-30.72-21.76-49.92-21.76s-35.84 8.96-49.92 21.76l-153.6 179.2c-15.36 19.2-19.2 44.8-10.24 66.56 10.24 21.76 32 35.84 56.32 35.84h34.56c10.24 56.32 32 138.24 83.2 203.52h-465.92l-46.080 58.88h-249.6c-14.080 0-25.6-11.52-25.6-25.6v-641.28c0-14.080 11.52-25.6 25.6-25.6h834.56c14.080 0 25.6 11.52 25.6 25.6 0 39.68 0 85.76 0 134.4l-8.96-11.52z" />
<glyph unicode="&#xe926;" glyph-name="configuration-quick-summary" d="M1024 623.36c0 34.56-78.080 44.8-94.72 38.4-11.52-3.84-12.8-21.76-11.52-34.56-3.84 5.12-5.12 11.52-7.68 12.8l-85.76 161.28c-1.28 3.84-3.84 7.68-7.68 8.96-11.52 11.52-34.56 33.28-303.36 33.28-266.24 0-290.56-21.76-302.080-33.28-3.84-3.84-5.12-5.12-7.68-8.96l-81.92-163.84-16.64-29.44c1.28 12.8 1.28 38.4-11.52 42.24-16.64 5.12-94.72-5.12-94.72-38.4 0-38.4 87.040-34.56 87.040-34.56h1.28l-5.12-7.68c-8.96-15.36-16.64-24.32-25.6-37.12-34.56-49.92-38.4-75.52-38.4-75.52s-5.12-208.64-2.56-211.2v-158.72c0-17.92 15.36-33.28 33.28-33.28h78.080c17.92 0 33.28 15.36 33.28 33.28v61.44h719.36v-61.44c0-17.92 15.36-33.28 33.28-33.28h92.16c11.52 0 17.92 8.96 17.92 17.92v175.36l-5.12 207.36c0 0-3.84 24.32-38.4 75.52-8.96 12.8-16.64 21.76-25.6 37.12 0 0-5.12 8.96-11.52 20.48 11.52 0 81.92 0 81.92 35.84zM198.4 623.36l69.12 133.12c24.32 5.12 94.72 15.36 248.32 15.36 144.64 0 224-7.68 249.6-15.36l69.12-133.12c5.12-11.52-1.28-21.76-12.8-21.76h-610.56c-11.52-1.28-19.2 10.24-12.8 21.76zM211.2 343.040l-139.52 24.32c0 0-8.96 40.96 11.52 87.040 21.76 46.080 170.24-42.24 170.24-42.24l24.32-55.040-66.56-14.080zM513.28 339.2c-25.6 0-46.080 20.48-46.080 46.080s20.48 46.080 46.080 46.080 46.080-20.48 46.080-46.080c-2.56-25.6-21.76-46.080-46.080-46.080zM938.24 454.4c21.76-46.080 11.52-87.040 11.52-87.040l-138.24-24.32-69.12 11.52 24.32 55.040c1.28 0 152.32 90.88 171.52 44.8z" />
<glyph unicode="&#xe927;" glyph-name="configuration-save" d="M1020.16 692.48l-161.28 185.6c-3.84 3.84-7.68 5.12-10.24 5.12-3.84 0-7.68-1.28-10.24-5.12l-161.28-185.6c-5.12-7.68-1.28-15.36 5.12-19.2v0 0c1.28 0 1.28 0 3.84 0h99.84c0-33.28-3.84-97.28-26.88-171.52-32-107.52-111.36-166.4-111.36-166.4v-15.36c5.12 0 81.92 1.28 179.2 99.84 5.12 5.12 8.96 8.96 12.8 14.080 1.28 1.28 1.28 3.84 3.84 5.12 3.84 3.84 5.12 7.68 8.96 10.24 1.28 1.28 3.84 3.84 3.84 5.12 1.28 3.84 5.12 7.68 7.68 10.24 1.28 1.28 3.84 3.84 3.84 7.68 1.28 3.84 3.84 7.68 5.12 10.24 1.28 1.28 1.28 3.84 3.84 7.68 1.28 3.84 3.84 7.68 5.12 10.24 1.28 1.28 1.28 3.84 3.84 5.12 1.28 3.84 3.84 8.96 5.12 12.8 0 1.28 1.28 3.84 1.28 3.84 1.28 5.12 5.12 10.24 7.68 17.92 0 1.28 1.28 1.28 1.28 3.84 1.28 3.84 3.84 8.96 3.84 12.8 0 1.28 1.28 3.84 1.28 7.68 1.28 3.84 1.28 7.68 3.84 10.24 0 1.28 1.28 5.12 1.28 7.68 0 3.84 1.28 5.12 1.28 8.96 0 1.28 1.28 5.12 1.28 7.68 0 3.84 1.28 5.12 1.28 8.96 0 1.28 1.28 5.12 1.28 7.68 0 1.28 1.28 5.12 1.28 7.68 0 1.28 1.28 5.12 1.28 7.68 0 1.28 0 3.84 1.28 7.68 1.28 7.68 1.28 12.8 3.84 17.92v0 0c1.28 8.96 1.28 17.92 3.84 23.040h83.2c11.52-6.4 16.64 6.4 8.96 12.8zM865.28 380.16c-110.080-110.080-199.68-115.2-216.32-115.2h-1.28l-51.2 1.28v93.44l21.76 15.36c0 0 65.28 49.92 92.16 138.24 12.8 38.4 17.92 74.24 21.76 104.96h-40.96c-24.32 0-47.36 14.080-58.88 37.12-1.28 5.12-3.84 10.24-5.12 15.36h-290.56l-47.36 61.44h-262.4c-14.080 0-26.88-12.8-26.88-26.88v-666.88c0-14.080 12.8-26.88 26.88-26.88h874.24c14.080 0 26.88 12.8 26.88 26.88 0 120.32 0 294.4 0 428.8-16.64-29.44-37.12-60.16-62.72-87.040z" />
<glyph unicode="&#xe928;" glyph-name="configure" d="M183.040 510.72c10.24-37.12 11.52-42.24 21.76-81.92l90.88-16.64c6.4-8.96 14.080-15.36 19.2-21.76 29.44 15.36 61.44 32 97.28 47.36-35.84 26.88-57.6 70.4-57.6 117.76 0 81.92 66.56 148.48 148.48 148.48s149.76-66.56 149.76-148.48c0-30.72-10.24-60.16-25.6-84.48 14.080 0 29.44 0 42.24 0 55.040 0 101.12-1.28 140.8-5.12 3.84 20.48 5.12 30.72 11.52 61.44l-74.24 55.040c-5.12 21.76-10.24 35.84-15.36 56.32l37.12 84.48c-25.6 30.72-29.44 34.56-55.040 65.28l-87.040-24.32c-20.48 8.96-34.56 15.36-52.48 24.32l-40.96 81.92c-39.68-1.28-44.8-1.28-84.48-1.28l-35.84-84.48c-19.2-10.24-32-16.64-51.2-26.88l-89.6 19.2c-24.32-30.72-26.88-35.84-49.92-66.56l42.24-80.64c-3.84-21.76-6.4-35.84-10.24-57.6l-71.68-61.44zM1002.24 213.76v52.48c0 0-14.080 35.84-34.56 65.28-20.48 30.72-40.96 52.48-40.96 52.48v16.64c0 0-99.84 16.64-257.28 16.64-42.24 0-90.88-1.28-143.36-5.12-96-6.4-253.44-112.64-253.44-112.64s-142.080-15.36-211.2-47.36c-21.76-10.24-44.8-42.24-52.48-62.72l-8.96-8.96v-32l11.52-6.4v-44.8l112.64-16.64h10.24c8.96-30.72 37.12-55.040 70.4-55.040 34.56 0 62.72 24.32 71.68 56.32l480 10.24c3.84-37.12 34.56-66.56 74.24-66.56s71.68 30.72 74.24 70.4l80.64 1.28c0 0 26.88 16.64 30.72 30.72 8.96 30.72 8.96 74.24 8.96 74.24l-23.040 11.52z" />
<glyph unicode="&#xe929;" glyph-name="consumption" d="M945.92 691.2l-203.52 206.080-43.52-43.52 74.24-72.96v-133.12l65.28-65.28h11.52v-476.16c0-11.52-10.24-19.2-19.2-19.2h-25.6c-11.52 0-19.2 10.24-19.2 19.2v302.080c0 55.040-44.8 98.56-98.56 98.56h-74.24v423.68c0 15.36-14.080 29.44-29.44 29.44h-476.16c-16.64 0-29.44-14.080-29.44-29.44v-965.12c0-15.36 14.080-29.44 29.44-29.44h476.16c15.36 0 29.44 14.080 29.44 29.44v463.36h70.4c11.52 0 19.2-10.24 19.2-19.2v-299.52c0-55.040 44.8-98.56 98.56-98.56h26.88c55.040 0 98.56 43.52 98.56 98.56v474.88h17.92l1.28 106.24zM175.36 861.44h339.2v-257.28h-339.2v257.28z" />
<glyph unicode="&#xe92a;" glyph-name="crafter" d="M1016.32 588.8c0 0 3.84 30.72-20.48 32-23.040 1.28-49.92 1.28-49.92 1.28s-12.8 1.28-12.8-15.36c0-20.48 1.28-43.52 1.28-43.52l-11.52 1.28v1.28l-25.6 129.28c0 0-32 171.52-49.92 221.44-15.36 43.52-69.12 42.24-69.12 42.24h-517.12c0 0-15.36 1.28-53.76 0-35.84-1.28-43.52-58.88-43.52-58.88l-67.84-332.8h-8.96c0 0 1.28 23.040 1.28 43.52 0 17.92-12.8 15.36-12.8 15.36s-26.88-2.56-49.92-2.56c-23.040-1.28-20.48-32-20.48-32s-1.28-76.8 0-85.76c1.28-11.52 20.48-12.8 20.48-12.8s28.16 0 44.8 1.28c16.64 0 15.36 16.64 15.36 16.64v16.64c0 0 11.52-12.8 11.52-16.64v-10.24l-1.28-20.48c0 0-3.84-44.8-3.84-53.76 0-6.4-1.28-52.48-3.84-57.6 0-3.84-1.28-48.64-1.28-48.64s-11.52-5.12-11.52-38.4c0-32-1.28-115.2 0-133.12 1.28-16.64 3.84-96 3.84-96v-96c0 0 1.28-21.76 20.48-21.76s64 0 64 0 16.64 0 16.64 11.52c1.28 11.52 0 79.36 0 80.64 11.52 0 355.84-5.12 366.080-5.12 8.96 0 305.92 5.12 305.92 5.12s-1.28-66.56 0-80.64c1.28-11.52 16.64-11.52 16.64-11.52s44.8 0 64 0c16.64 0 20.48 21.76 20.48 21.76v96c0 0 1.28 79.36 3.84 96 1.28 16.64 1.28 98.56 0 133.12 0 32-11.52 39.68-11.52 39.68s-1.28 44.8-1.28 48.64c0 3.84-3.84 48.64-3.84 57.6 0 6.4-3.84 53.76-3.84 53.76l-6.4 30.72c1.28 5.12 8.96 15.36 8.96 15.36v-16.64c0 0-1.28-16.64 15.36-16.64s44.8-1.28 44.8-1.28 17.92 1.28 20.48 12.8c-3.84 6.4-3.84 83.2-3.84 83.2zM193.28 782.080c16.64 20.48 320 16.64 320 16.64s298.24 1.28 314.88-17.92c23.040-30.72 42.24-248.32 42.24-248.32-55.040 10.24-357.12 8.96-357.12 8.96s-309.76 3.84-363.52-8.96c1.28 1.28 19.2 217.6 43.52 249.6zM139.52 303.36c-20.48 5.12-16.64 32-16.64 32l1.28 70.4 124.16-21.76 17.92-103.68c0 0-97.28 14.080-126.72 23.040zM711.68 277.76l-20.48-17.92h-358.4l-23.040 20.48-20.48 106.24h442.88l-20.48-108.8zM881.92 303.36c-29.44-6.4-126.72-21.76-126.72-21.76l17.92 103.68 124.16 21.76 1.28-71.68c2.56-1.28 3.84-26.88-16.64-32z" />
<glyph unicode="&#xe92b;" glyph-name="crosshair" d="M513.28 958.72c0 0-1.28 0 0 0-1.28 0-3.84 0-3.84 0-281.6 0-509.44-230.4-509.44-510.72 0-281.6 230.4-510.72 510.72-510.72h2.56c281.6 0 510.72 230.4 510.72 510.72 0 281.6-227.84 510.72-510.72 510.72zM551.68 52.48v135.68c0 15.36-12.8 28.16-28.16 28.16h-23.040c-15.36 0-28.16-12.8-28.16-28.16v-136.96c-190.72 19.2-340.48 170.24-358.4 358.4v0h136.96c15.36 0 28.16 12.8 28.16 28.16v20.48c0 15.36-12.8 28.16-28.16 28.16h-136.96c19.2 188.16 170.24 337.92 358.4 357.12v-134.4c0-15.36 12.8-28.16 28.16-28.16h23.040c15.36 0 28.16 12.8 28.16 28.16v134.4c188.16-19.2 340.48-167.68 358.4-357.12h-136.96c-15.36 0-28.16-12.8-28.16-28.16v-20.48c0-15.36 12.8-28.16 28.16-28.16h136.96c-16.64-189.44-167.68-340.48-358.4-357.12z" />
<glyph unicode="&#xe92c;" glyph-name="dealer" d="M515.84 593.92c106.24 0 172.8 66.56 172.8 172.8s-47.36 193.28-172.8 193.28c-128 0-172.8-87.040-172.8-193.28 1.28-107.52 66.56-172.8 172.8-172.8zM875.52 161.28c-1.28 275.2-56.32 377.6-244.48 404.48-29.44-23.040-67.84-35.84-115.2-35.84s-87.040 12.8-115.2 35.84c-195.84-23.040-254.72-122.88-257.28-399.36 0-8.96 0-19.2 0-29.44v-136.96c0-15.36 10.24-28.16 23.040-28.16 0 0 79.36-35.84 346.88-35.84s343.040 35.84 343.040 35.84c12.8 0 23.040 12.8 23.040 28.16v116.48c0 15.36 0 23.040 0 23.040-3.84 7.68-3.84 15.36-3.84 21.76zM518.4 99.84c-6.4-6.4-19.2-6.4-25.6 0l-57.6 66.56 53.76 311.040h40.96l53.76-308.48-65.28-69.12z" />
<glyph unicode="&#xe92d;" glyph-name="delete" d="M684.8 960h-345.6c-16.64 0-29.44-14.080-29.44-29.44v-139.52h99.84v69.12h208.64v-70.4h98.56v140.8c-1.28 15.36-14.080 29.44-32 29.44zM716.8 788.48h-640v-99.84h99.84v-721.92c0-16.64 14.080-29.44 29.44-29.44h610.56c16.64 0 29.44 14.080 29.44 29.44v721.92h101.12v99.84c0 0-230.4 0-230.4 0zM645.12 633.6h70.4v-597.76h-70.4v597.76zM481.28 633.6h69.12v-597.76h-70.4v597.76zM317.44 633.6h70.4v-597.76h-70.4v597.76z" />
<glyph unicode="&#xe92e;" glyph-name="document-magnifier" d="M161.28 151.040v727.040h568.32v-352c30.72-12.8 57.6-30.72 81.92-53.76v422.4c0 35.84-29.44 65.28-65.28 65.28h-601.6c-35.84 0-65.28-29.44-65.28-65.28v-760.32c0-35.84 29.44-65.28 65.28-65.28h263.68c-23.040 24.32-40.96 52.48-53.76 81.92h-193.28zM570.88 545.28h-326.4c-10.24 0-17.92-7.68-17.92-17.92v-24.32c0-10.24 7.68-17.92 17.92-17.92h190.72c39.68 30.72 85.76 52.48 135.68 60.16zM381.44 424.96h-136.96c-10.24 0-17.92-7.68-17.92-17.92v-24.32c0-10.24 7.68-17.92 17.92-17.92h104.96c7.68 20.48 19.2 40.96 32 60.16zM244.48 304.64c-10.24 0-17.92-7.68-17.92-17.92v-24.32c0-10.24 7.68-17.92 17.92-17.92h88.32c0 6.4-1.28 14.080-1.28 20.48 0 14.080 1.28 28.16 3.84 40.96h-90.88zM664.32 768c0 10.24-7.68 17.92-17.92 17.92h-190.72c-10.24 0-17.92-7.68-17.92-17.92v-25.6c0-10.24 7.68-17.92 17.92-17.92h190.72c10.24 0 17.92 7.68 17.92 17.92v25.6zM664.32 646.4c0 10.24-7.68 17.92-17.92 17.92h-190.72c-10.24 0-17.92-7.68-17.92-17.92v-24.32c0-10.24 7.68-17.92 17.92-17.92h190.72c10.24 0 17.92 7.68 17.92 17.92v24.32zM369.92 604.16c10.24 0 17.92 7.68 17.92 17.92v145.92c0 10.24-7.68 17.92-17.92 17.92h-125.44c-10.24 0-17.92-7.68-17.92-17.92v-144.64c0-10.24 7.68-17.92 17.92-17.92l125.44-1.28zM505.6 156.16c-24.32 24.32-38.4 55.040-42.24 87.040-2.56 20.48-1.28 40.96 3.84 61.44 6.4 20.48 16.64 40.96 30.72 58.88 2.56 3.84 6.4 6.4 8.96 10.24 29.44 30.72 70.4 46.080 110.080 46.080 15.36 0 30.72-2.56 46.080-7.68 23.040-7.68 43.52-19.2 61.44-38.4 1.28-1.28 2.56-3.84 5.12-5.12 26.88-29.44 39.68-65.28 39.68-103.68-1.28-38.4-14.080-72.96-39.68-102.4-2.56-2.56-3.84-5.12-6.4-6.4-2.56-2.56-5.12-3.84-6.4-6.4-28.16-25.6-64-39.68-102.4-39.68h-1.28c-38.4 0-74.24 14.080-102.4 39.68-1.28 2.56-3.84 3.84-5.12 6.4zM929.28 42.24l-107.52 108.8c19.2 34.56 29.44 72.96 29.44 113.92 0 47.36-12.8 92.16-39.68 131.84-7.68 12.8-17.92 24.32-28.16 34.56-16.64 16.64-34.56 29.44-53.76 39.68-20.48 11.52-43.52 19.2-66.56 24.32-15.36 2.56-29.44 3.84-44.8 3.84-29.44 0-58.88-5.12-85.76-16.64-29.44-11.52-57.6-29.44-80.64-52.48-1.28-1.28-3.84-3.84-5.12-5.12-17.92-19.2-32-39.68-42.24-61.44-8.96-19.2-15.36-38.4-17.92-58.88-2.56-12.8-3.84-26.88-3.84-40.96 0-6.4 0-14.080 1.28-20.48 2.56-32 11.52-64 26.88-92.16 10.24-19.2 23.040-37.12 39.68-53.76 10.24-10.24 23.040-20.48 34.56-28.16 38.4-25.6 81.92-39.68 129.28-39.68v0c40.96 0 80.64 10.24 113.92 29.44l108.8-107.52c10.24-10.24 24.32-15.36 38.4-15.36s26.88 5.12 38.4 15.36l15.36 15.36c20.48 20.48 21.76 53.76 0 75.52z" />
<glyph unicode="&#xe92f;" glyph-name="document-pen" d="M209.92 463.36h417.28c10.24 0 19.2 8.96 19.2 19.2v25.6c0 10.24-8.96 19.2-19.2 19.2h-417.28c-10.24 0-19.2-8.96-19.2-19.2v-25.6c0-10.24 7.68-19.2 19.2-19.2zM209.92 337.92h417.28c10.24 0 19.2 8.96 19.2 19.2v25.6c0 10.24-8.96 19.2-19.2 19.2h-417.28c-10.24 0-19.2-8.96-19.2-19.2v-25.6c0-11.52 7.68-19.2 19.2-19.2zM427.52 714.24h199.68c10.24 0 19.2 8.96 19.2 19.2v25.6c0 10.24-8.96 19.2-19.2 19.2h-199.68c-10.24 0-19.2-8.96-19.2-19.2v-25.6c0-10.24 8.96-19.2 19.2-19.2zM427.52 588.8h199.68c10.24 0 19.2 8.96 19.2 19.2v25.6c0 10.24-8.96 19.2-19.2 19.2h-199.68c-10.24 0-19.2-8.96-19.2-19.2v-25.6c0-10.24 8.96-19.2 19.2-19.2zM209.92 588.8h130.56c10.24 0 19.2 8.96 19.2 19.2v151.040c0 10.24-8.96 19.2-19.2 19.2h-130.56c-10.24 0-19.2-8.96-19.2-19.2v-151.040c0-10.24 7.68-19.2 19.2-19.2zM800 144.64v0 0 0zM437.76 84.48l3.84 8.96 23.040 23.040h-343.040v757.76h592.64v-512l65.28 64 20.48 20.48v444.16c0 38.4-30.72 69.12-69.12 69.12h-627.2c-38.4 0-69.12-30.72-69.12-69.12v-792.32c0-38.4 30.72-69.12 69.12-69.12h308.48l25.6 55.040zM627.2 276.48c0 0 0 0 0 0h-417.28c-10.24 0-19.2-8.96-19.2-19.2v-25.6c0-10.24 8.96-19.2 19.2-19.2h352l65.28 64zM931.84 407.040c11.52-11.52 19.2-25.6 21.76-39.68l19.2 19.2c19.2 17.92 19.2 48.64 1.28 67.84l-12.8 14.080c-8.96 10.24-21.76 14.080-34.56 14.080-11.52 0-24.32-5.12-33.28-14.080l-17.92-17.92c14.080-3.84 26.88-11.52 37.12-23.040l19.2-20.48zM448-64c1.28 0 3.84 0 5.12 1.28l110.080 44.8 344.32 337.92c2.56 16.64-1.28 34.56-14.080 48.64l-19.2 20.48c-10.24 10.24-24.32 16.64-38.4 16.64 0 0 0 0 0 0-1.28 0-2.56 0-5.12 0l-348.16-341.76-48.64-107.52c-3.84-10.24 3.84-20.48 14.080-20.48z" />
<glyph unicode="&#xe930;" glyph-name="door-close" d="M414.72 224c85.76 85.76 208.64 119.040 288 131.84v48.64c0 39.68 32 71.68 71.68 71.68 17.92 0 34.56-6.4 47.36-17.92l85.76-72.96 89.6 497.92c3.84 24.32-11.52 48.64-37.12 52.48-2.56 0-5.12 1.28-7.68 1.28h-578.56c-64 0-122.88-33.28-156.16-88.32l-179.2-300.8c-25.6-42.24-38.4-90.88-38.4-140.8v-279.040c0-25.6 20.48-44.8 44.8-44.8 0 0 0 0 0 0h264.96c26.88 52.48 62.72 99.84 104.96 140.8zM296.96 802.56c16.64 26.88 44.8 43.52 76.8 43.52h524.8l-52.48-290.56h-696.32l147.2 247.040zM1018.88 212.48l-224 192c-6.4 5.12-15.36 5.12-20.48-1.28-2.56-2.56-3.84-6.4-3.84-8.96v-99.84c-61.44-5.12-211.2-28.16-305.92-122.88-122.88-121.6-120.32-215.040-120.32-215.040h19.2c51.2 64 120.32 110.080 199.68 134.4 67.84 20.48 136.96 30.72 207.36 32v-117.76c0-7.68 6.4-14.080 14.080-14.080 3.84 0 6.4 1.28 8.96 3.84l224 192c6.4 6.4 7.68 16.64 1.28 24.32 0 0 0 0 0 1.28z" />
<glyph unicode="&#xe931;" glyph-name="door-open" d="M305.92 144.64c-32 26.88-34.56 74.24-7.68 106.24 2.56 2.56 5.12 5.12 7.68 7.68l226.56 193.28c30.72 25.6 76.8 23.040 102.4-7.68 11.52-12.8 17.92-30.72 17.92-47.36v-48.64c85.76-12.8 168.96-43.52 241.92-92.16l113.92 629.76c2.56 24.32-14.080 48.64-38.4 52.48-2.56 0-5.12 1.28-7.68 1.28h-584.96c-64 0-124.16-33.28-157.44-89.6l-181.76-303.36c-25.6-42.24-38.4-92.16-38.4-142.080v-281.6c0-25.6 20.48-46.080 46.080-46.080 0 0 0 0 0 0h336.64l-76.8 67.84zM299.52 803.84c16.64 28.16 46.080 44.8 78.080 44.8h528.64l-52.48-293.12h-704l149.76 248.32zM344.32 213.76l226.56 193.28c6.4 5.12 15.36 5.12 20.48-1.28 2.56-2.56 3.84-6.4 3.84-8.96v-99.84c62.72-5.12 213.76-28.16 308.48-124.16 122.88-121.6 120.32-216.32 120.32-216.32h-19.2c-52.48 64-121.6 111.36-200.96 135.68-67.84 20.48-138.24 30.72-208.64 30.72v-119.040c0-7.68-6.4-14.080-14.080-14.080-3.84 0-6.4 1.28-8.96 3.84l-227.84 194.56c-7.68 6.4-7.68 16.64-1.28 24.32 0 0 0 0 1.28 1.28z" />
<glyph unicode="&#xe932;" glyph-name="doors" d="M977.92 885.76h-592.64c-65.28 0-125.44-34.56-160-90.88l-185.6-308.48c-25.6-43.52-39.68-93.44-39.68-143.36v-285.44c0-25.6 20.48-46.080 46.080-46.080 0 0 0 0 0 0h789.76c23.040 0 42.24 16.64 46.080 38.4l142.080 782.080c5.12 25.6-12.8 49.92-37.12 53.76-3.84 0-6.4 0-8.96 0zM819.2 364.8h-130.56c-15.36 0-28.16 12.8-28.16 28.16s12.8 28.16 28.16 28.16h130.56c15.36 0 28.16-12.8 28.16-28.16 0-16.64-12.8-28.16-28.16-28.16v0zM867.84 494.080h-714.24l151.040 252.16c16.64 28.16 47.36 44.8 79.36 44.8h537.6l-53.76-296.96z" />
<glyph unicode="&#xe933;" glyph-name="download" d="M984.32 346.88h-102.4c-12.8 0-20.48-7.68-20.48-20.48v-10.24c0-74.24-3.84-175.36-37.12-207.36-30.72-29.44-121.6-29.44-247.040-29.44-40.96 0-87.040 0-128 0-125.44 0-216.32-2.56-247.040 29.44-33.28 33.28-37.12 134.4-37.12 207.36v10.24c0 12.8-10.24 20.48-20.48 20.48h-102.4c-12.8 0-20.48-7.68-20.48-20.48v-10.24c0-138.24 14.080-244.48 78.080-308.48 71.68-71.68 183.040-71.68 349.44-70.4 39.68 0 160 0 175.36 0 139.52 0 234.24 6.4 300.8 70.4 65.28 64 78.080 171.52 78.080 308.48v10.24c1.28 11.52-8.96 20.48-19.2 20.48zM496.64 314.88c7.68-10.24 23.040-10.24 30.72 0l239.36 277.76c10.24 12.8 2.56 29.44-14.080 29.44h-136.96l-16.64 313.6c0 14.080-12.8 24.32-24.32 24.32h-124.16c-14.080 0-24.32-10.24-26.88-24.32l-14.080-313.6h-138.24c-14.080 0-23.040-17.92-14.080-29.44l239.36-277.76z" />
<glyph unicode="&#xe934;" glyph-name="email" d="M549.12 960c-335.36 0-532.48-248.32-532.48-520.96 0-326.4 194.56-503.040 500.48-503.040 75.52 0 138.24 11.52 188.16 25.6 16.64 5.12 25.6 23.040 21.76 39.68l-7.68 25.6c-5.12 19.2-23.040 28.16-39.68 23.040-35.84-8.96-78.080-19.2-121.6-21.76-239.36-14.080-427.52 166.4-430.080 405.76-3.84 225.28 142.080 432.64 418.56 432.64 254.72 0 362.24-165.12 362.24-353.28 0-174.080-72.96-253.44-143.36-253.44-58.88 0-70.4 44.8-56.32 117.76l51.2 284.16c2.56 19.2-11.52 35.84-30.72 35.84h-58.88l-28.16-42.24h-2.56c-30.72 25.6-70.4 56.32-135.68 56.32-160 0-250.88-168.96-250.88-323.84 0-124.16 78.080-208.64 188.16-208.64 67.84 0 120.32 30.72 160 64h2.56c25.6-44.8 67.84-78.080 148.48-78.080 126.72 0 256 124.16 256 352 6.4 240.64-165.12 442.88-459.52 442.88zM577.28 323.84c-25.6-19.2-65.28-33.28-98.56-33.28-61.44 0-89.6 42.24-89.6 103.68 0 110.080 53.76 204.8 140.8 204.8 33.28 0 65.28-11.52 89.6-30.72l-42.24-244.48z" />
<glyph unicode="&#xe935;" glyph-name="emission" d="M855.040 558.080c-11.52 143.36-130.56 256-277.76 256-85.76 0-165.12-38.4-217.6-104.96-6.4 0-12.8 1.28-19.2 1.28-90.88 0-167.68-67.84-180.48-154.88-93.44-34.56-160-126.72-160-230.4 0-134.4 110.080-244.48 244.48-244.48h535.040c134.4 0 245.76 110.080 245.76 244.48-2.56 107.52-70.4 199.68-170.24 232.96zM778.24 165.12h-533.76c-88.32 0-161.28 71.68-161.28 161.28 0 74.24 53.76 140.8 128 157.44 19.2 3.84 33.28 21.76 33.28 40.96v2.56c0 55.040 44.8 99.84 99.84 99.84 7.68 0 17.92-1.28 26.88-3.84 17.92-3.84 35.84 2.56 46.080 17.92 35.84 56.32 97.28 89.6 163.84 89.6 106.24 0 194.56-87.040 194.56-194.56 0-1.28 0-3.84 0-5.12v-3.84c-1.28-20.48 14.080-38.4 34.56-43.52 78.080-14.080 134.4-80.64 134.4-158.72-5.12-88.32-76.8-160-166.4-160zM404.48 442.88c15.36 0 26.88-2.56 40.96-10.24l10.24 29.44c-16.64 7.68-34.56 11.52-51.2 11.52-56.32 0-87.040-37.12-87.040-94.72 0-55.040 30.72-94.72 87.040-94.72 16.64 0 34.56 3.84 51.2 11.52l-11.52 30.72c-15.36-6.4-26.88-10.24-40.96-10.24-32 0-49.92 24.32-49.92 62.72 1.28 39.68 19.2 64 51.2 64zM558.080 474.88c-60.16 0-87.040-40.96-87.040-94.72s26.88-94.72 87.040-94.72c60.16 0 85.76 40.96 85.76 94.72s-25.6 94.72-85.76 94.72zM558.080 318.72c-35.84 0-48.64 26.88-48.64 62.72s12.8 62.72 48.64 62.72c35.84 0 48.64-26.88 48.64-62.72-1.28-37.12-14.080-62.72-48.64-62.72zM697.6 268.8l24.32 21.76c5.12 5.12 15.36 15.36 15.36 29.44 0 19.2-15.36 30.72-35.84 30.72-14.080 0-26.88-7.68-32-14.080l11.52-12.8c5.12 5.12 12.8 10.24 20.48 10.24s15.36-7.68 15.36-14.080c0-7.68-3.84-14.080-10.24-19.2l-35.84-34.56v-14.080h67.84v16.64h-40.96z" />
<glyph unicode="&#xe936;" glyph-name="engine" d="M401.92 409.6l16.64-30.72c-1.28-7.68-2.56-14.080-5.12-21.76l-26.88-21.76c2.56-14.080 5.12-16.64 7.68-30.72l34.56-6.4c6.4-6.4 8.96-11.52 14.080-16.64l1.28-34.56c14.080-6.4 15.36-6.4 29.44-12.8l26.88 23.040c7.68 0 14.080 0 21.76 0l28.16-21.76c14.080 6.4 15.36 7.68 28.16 15.36l-1.28 34.56c5.12 6.4 7.68 11.52 14.080 19.2l34.56 7.68c2.56 14.080 2.56 16.64 6.4 30.72l-28.16 20.48c-1.28 7.68-2.56 14.080-6.4 21.76l14.080 30.72c-8.96 11.52-11.52 12.8-20.48 24.32l-34.56-8.96c-7.68 2.56-12.8 6.4-20.48 8.96l-15.36 30.72c-15.36 0-16.64 0-33.28-1.28l-14.080-33.28c-7.68-2.56-12.8-6.4-20.48-11.52l-33.28 10.24c-7.68-11.52-8.96-12.8-17.92-25.6zM510.72 409.6c30.72 0 57.6-24.32 57.6-57.6s-25.6-57.6-57.6-57.6c-33.28 0-57.6 24.32-57.6 57.6s24.32 57.6 57.6 57.6zM405.76 725.76h281.6c11.52 0 19.2 8.96 19.2 19.2v38.4c0 11.52-8.96 19.2-19.2 19.2h-281.6c-11.52 0-19.2-8.96-19.2-19.2v-38.4c0-10.24 8.96-19.2 19.2-19.2zM1024 492.8c0 12.8-11.52 23.040-23.040 23.040h-30.72c-12.8 0-23.040-11.52-23.040-23.040v-93.44h-78.080v92.16c0 12.8-11.52 23.040-23.040 23.040h-61.44v76.8c0 12.8-11.52 23.040-23.040 23.040h-363.52l-139.52-113.92h-74.24c-12.8 0-23.040-11.52-23.040-23.040v-90.88c0-1.28 0-2.56 0-5.12v0h-83.2v1.28c0 1.28 0 2.56 0 5.12v90.88c0 12.8-11.52 23.040-23.040 23.040h-32c-12.8 0-23.040-11.52-23.040-23.040v-258.56c0-12.8 11.52-23.040 23.040-23.040h30.72c12.8 0 23.040 11.52 23.040 23.040v81.92h81.92v-76.8c0-12.8 11.52-23.040 23.040-23.040h71.68l143.36-110.080h244.48l139.52 111.36h64c12.8 0 23.040 11.52 23.040 23.040 0 0 0 92.16 0 93.44v1.28h78.080v-94.72c0-12.8 11.52-23.040 23.040-23.040h30.72c12.8 0 23.040 11.52 23.040 23.040v266.24zM720.64 236.8l-99.84-79.36h-200.96l-125.44 98.56-16.64 14.080h-52.48v167.68h56.32l16.64 14.080 122.88 99.84h298.24v-314.88h1.28z" />
<glyph unicode="&#xe937;" glyph-name="engine-diesel" d="M533.76 949.76c-10.24 14.080-32 14.080-40.96 0-75.52-113.92-326.4-412.16-326.4-670.72 0-189.44 156.16-343.040 345.6-343.040 190.72 0 345.6 153.6 345.6 343.040 1.28 232.96-249.6 556.8-323.84 670.72zM401.92 42.24c-65.28 35.84-156.16 106.24-156.16 225.28 0 87.040 23.040 167.68 49.92 230.4 7.68 21.76 40.96 11.52 37.12-10.24-7.68-43.52-14.080-98.56-14.080-167.68 0-110.080 57.6-212.48 96-258.56 12.8-11.52-1.28-24.32-12.8-19.2z" />
<glyph unicode="&#xe938;" glyph-name="engine-electric" d="M747.52 778.24h-52.48v130.56c0 29.44-21.76 51.2-51.2 51.2s-51.2-21.76-51.2-51.2v-130.56h-162.56v130.56c0 29.44-21.76 51.2-51.2 51.2s-51.2-21.76-51.2-51.2v-130.56h-52.48c-14.080 0-25.6-11.52-25.6-25.6v-224c0-6.4 3.84-14.080 6.4-16.64l131.84-136.96h72.96v-387.84c0-29.44 21.76-51.2 51.2-51.2s51.2 21.76 51.2 51.2v386.56h69.12l134.4 138.24c5.12 5.12 6.4 11.52 6.4 16.64v224c0 14.080-10.24 25.6-25.6 25.6z" />
<glyph unicode="&#xe939;" glyph-name="engine-gas" d="M965.12 951.040c0 7.68-11.52 11.52-17.92 6.4-76.8-66.56-177.92-97.28-270.080-98.56-120.32-2.56-326.4-2.56-495.36-171.52-151.040-148.48-156.16-350.72-75.52-477.44 3.84-7.68 15.36-6.4 19.2 2.56 37.12 80.64 102.4 199.68 189.44 270.080 81.92 67.84 199.68 111.36 290.56 136.96 11.52 3.84 19.2-14.080 7.68-19.2-76.8-35.84-175.36-87.040-254.72-156.16-88.32-76.8-145.92-185.6-177.92-261.12-14.080-29.44-39.68-88.32-49.92-130.56-14.080-55.040-15.36-88.32-17.92-104.96 0-6.4 3.84-11.52 10.24-11.52h61.44c6.4 0 10.24 3.84 10.24 10.24 2.56 19.2 6.4 69.12 21.76 134.4 2.56 6.4 3.84 14.080 6.4 19.2 138.24-76.8 335.36-80.64 472.32 55.040 302.080 298.24 280.32 701.44 270.080 796.16z" />
<glyph unicode="&#xe93a;" glyph-name="engine-hybrid" d="M1017.6 337.92c0 0-1.28 15.36-24.32 46.080-5.12 8.96-10.24 14.080-15.36 24.32 0 0-3.84 5.12-6.4 11.52 8.96 0 53.76 0 53.76 21.76 0 20.48-48.64 28.16-60.16 24.32-6.4-1.28-6.4-14.080-6.4-21.76-1.28 3.84-3.84 6.4-3.84 8.96l-53.76 101.12c-1.28 1.28-3.84 5.12-5.12 6.4-6.4 6.4-21.76 20.48-189.44 20.48s-183.040-14.080-189.44-20.48c-1.28-1.28-3.84-3.84-5.12-6.4l-51.2-103.68-10.24-19.2c0 8.96 0 24.32-6.4 25.6-10.24 3.84-60.16-3.84-60.16-24.32 0-24.32 55.040-21.76 55.040-21.76v0l-3.84-5.12c-5.12-8.96-10.24-15.36-15.36-24.32-21.76-30.72-24.32-46.080-24.32-46.080s-3.84-126.72-3.84-130.56v-108.8c0-6.4 5.12-11.52 11.52-11.52h66.56c6.4 0 11.52 5.12 11.52 11.52v48.64h449.28v-48.64c0-6.4 5.12-11.52 11.52-11.52h66.56c6.4 0 11.52 5.12 11.52 11.52v110.080l-2.56 131.84zM505.6 442.88l43.52 83.2c14.080 3.84 60.16 8.96 156.16 8.96 90.88 0 140.8-5.12 156.16-8.96l43.52-83.2c3.84-6.4-1.28-14.080-8.96-14.080h-381.44c-6.4-1.28-11.52 7.68-8.96 14.080zM514.56 267.52l-85.76 14.080c0 0-6.4 25.6 6.4 55.040 14.080 29.44 106.24-28.16 106.24-28.16l15.36-34.56-42.24-6.4zM704 264.96c-15.36 0-29.44 11.52-29.44 29.44 0 15.36 11.52 29.44 29.44 29.44 15.36 0 29.44-11.52 29.44-29.44-2.56-16.64-14.080-29.44-29.44-29.44zM977.92 281.6l-85.76-14.080-43.52 6.4 15.36 34.56c0 0 93.44 56.32 106.24 28.16 14.080-29.44 7.68-55.040 7.68-55.040zM349.44 682.24h-38.4v93.44c0 20.48-14.080 35.84-34.56 35.84s-34.56-15.36-34.56-34.56v-93.44h-117.76v90.88c0 20.48-14.080 35.84-34.56 35.84s-34.56-15.36-34.56-35.84v-93.44h-38.4c-10.24 0-16.64-8.96-16.64-16.64v-158.72c0-5.12 1.28-8.96 5.12-11.52l93.44-96h51.2v-273.92c0-20.48 14.080-35.84 34.56-35.84s33.28 15.36 33.28 35.84l1.28 273.92h51.2l93.44 96c3.84 3.84 5.12 8.96 5.12 11.52v158.72c-2.56 10.24-8.96 17.92-19.2 17.92z" />
<glyph unicode="&#xe93b;" glyph-name="engine-oil" d="M249.6 803.84v125.44c0 16.64 14.080 30.72 30.72 30.72h180.48c16.64 0 30.72-14.080 30.72-30.72v-124.16c16.64-1.28 38.4-7.68 51.2-14.080l311.040-161.28c15.36-7.68 28.16-29.44 28.16-47.36v-613.12c0-17.92-14.080-32-32-32h-675.84c-17.92 0-32 14.080-32 32v613.12c0 17.92 6.4 46.080 14.080 61.44l61.44 133.12c5.12 11.52 19.2 21.76 32 26.88v0zM743.68 291.84v186.88c0 16.64-12.8 29.44-29.44 29.44h-403.2c-16.64 0-29.44-12.8-29.44-29.44v-188.16c0-16.64 12.8-29.44 29.44-29.44h403.2c15.36 1.28 29.44 14.080 29.44 30.72zM625.92 860.16c-20.48 1.28-40.96-8.96-51.2-28.16l-25.6-48.64 56.32-29.44 19.2 38.4 143.36-72.96-19.2-38.4 56.32-29.44 24.32 48.64c12.8 25.6 2.56 57.6-23.040 70.4v0l-161.28 84.48c-6.4 2.56-12.8 5.12-19.2 5.12v0zM631.040 802.56v0c0 0 0 0 0 0v0z" />
<glyph unicode="&#xe93c;" glyph-name="engine-petrol" d="M531.2 948.48c-3.84 7.68-12.8 11.52-20.48 11.52s-15.36-3.84-19.2-11.52c-75.52-113.92-325.12-412.16-325.12-669.44 0-189.44 156.16-343.040 344.32-343.040s346.88 153.6 346.88 343.040c-2.56 231.68-252.16 555.52-326.4 669.44zM510.72 32c-135.68 0-245.76 110.080-245.76 244.48 0 176.64 153.6 399.36 245.76 527.36 90.88-131.84 248.32-367.36 248.32-527.36-1.28-133.12-112.64-244.48-248.32-244.48zM399.36 335.36c0 62.72 6.4 112.64 14.080 153.6 2.56 14.080-7.68 21.76-17.92 21.76-6.4 0-14.080-3.84-15.36-11.52-23.040-57.6-44.8-131.84-44.8-211.2 0-108.8 83.2-172.8 142.080-204.8 2.56-2.56 3.84-2.56 6.4-2.56 7.68 0 15.36 10.24 7.68 17.92-40.96 42.24-92.16 134.4-92.16 236.8z" />
<glyph unicode="&#xe93d;" glyph-name="envelope" d="M0 651.52v-537.6c0-16.64 14.080-30.72 30.72-30.72h962.56c16.64 0 30.72 14.080 30.72 30.72v537.6l-512-316.16-512 316.16zM993.28 812.8h-962.56c-16.64 0-30.72-14.080-30.72-30.72v-60.16l512-314.88 512 316.16v60.16c0 15.36-14.080 29.44-30.72 29.44z" />
<glyph unicode="&#xe93e;" glyph-name="euro-sign" d="M440.32 252.16c42.24-93.44 115.2-144.64 207.36-144.64 72.96-1.28 144.64 16.64 208.64 49.92l53.76-157.44c-81.92-40.96-171.52-62.72-262.4-64-225.28 0-363.52 120.32-416 316.16h-117.76l44.8 145.92h48.64c-1.28 17.92-1.28 34.56-1.28 49.92s0 32 1.28 49.92h-93.44l43.52 145.92h75.52c51.2 195.84 189.44 316.16 414.72 316.16 90.88-1.28 180.48-23.040 262.4-64l-53.76-158.72c-64 34.56-135.68 51.2-208.64 49.92-93.44 0-176.64-57.6-208.64-144.64h380.16l-42.24-145.92h-369.92c-1.28-19.2-1.28-34.56-1.28-49.92s0-33.28 1.28-49.92h349.44l-42.24-145.92h-273.92z" />
<glyph unicode="&#xe93f;" glyph-name="exclamation-mark" d="M468.48 311.040h88.32c11.52 0 21.76 8.96 24.32 21.76l38.4 404.48v198.4c0 14.080-8.96 24.32-24.32 24.32h-165.12c-14.080 0-24.32-8.96-24.32-24.32v-198.4l38.4-404.48c1.28-11.52 12.8-21.76 24.32-21.76zM512 189.44c-76.8 0-124.16-52.48-124.16-126.72s47.36-126.72 124.16-126.72 124.16 52.48 124.16 126.72c0 76.8-47.36 126.72-124.16 126.72z" />
<glyph unicode="&#xe940;" glyph-name="exterior" d="M999.68 281.6v52.48c0 0-14.080 35.84-34.56 65.28-20.48 30.72-40.96 52.48-40.96 52.48v16.64c0 0-56.32 10.24-152.32 15.36l-3.84-81.92c-1.28-39.68-34.56-70.4-75.52-70.4h-71.68c-39.68 0-74.24 30.72-75.52 71.68l-1.28 80.64c-6.4 0-11.52 0-19.2-1.28-94.72-5.12-252.16-111.36-252.16-111.36s-142.080-15.36-211.2-47.36c-21.76-10.24-44.8-42.24-52.48-62.72l-8.96-10.24v-32l11.52-6.4v-46.080l112.64-16.64h10.24c8.96-30.72 37.12-55.040 70.4-55.040 34.56 0 62.72 24.32 71.68 56.32l480 10.24c3.84-37.12 34.56-66.56 74.24-66.56s71.68 30.72 74.24 70.4l80.64 1.28c0 0 26.88 16.64 30.72 30.72 8.96 30.72 8.96 74.24 8.96 74.24l-25.6 10.24zM517.12 620.8h80.64l10.24-222.72c0-8.96 6.4-14.080 15.36-14.080h71.68c8.96 0 15.36 6.4 15.36 14.080l10.24 222.72h80.64c8.96 0 14.080 10.24 8.96 16.64l-139.52 161.28c-1.28 3.84-5.12 3.84-8.96 3.84s-6.4-1.28-8.96-3.84l-142.080-161.28c-7.68-6.4-2.56-16.64 6.4-16.64z" />
<glyph unicode="&#xe941;" glyph-name="eye" d="M512 785.92c-335.36 0-512-328.96-512-328.96s176.64-345.6 512-345.6 512 345.6 512 345.6-176.64 328.96-512 328.96zM510.72 190.72c-142.080 0-257.28 115.2-257.28 257.28s115.2 257.28 257.28 257.28 257.28-115.2 257.28-257.28c1.28-142.080-113.92-257.28-257.28-257.28zM512 448c-7.68-1.28 55.040 69.12 90.88 108.8-14.080 12.8-34.56 23.040-53.76 28.16-76.8 21.76-153.6-24.32-174.080-99.84-21.76-76.8 24.32-153.6 99.84-174.080 76.8-21.76 153.6 24.32 174.080 99.84 3.84 12.8 5.12 24.32 5.12 37.12-47.36 1.28-135.68 1.28-142.080 0z" />
<glyph unicode="&#xe942;" glyph-name="factory" d="M879.36 527.36h-87.040v412.16c0 10.24-7.68 19.2-17.92 20.48-1.28 0-2.56 0-3.84 0h-47.36c-12.8 0-25.6-6.4-25.6-20.48v-412.16h-89.6c-12.8 0-23.040-15.36-23.040-28.16v-158.72h-80.64v24.32c1.28 10.24-6.4 19.2-16.64 20.48-1.28 0-2.56 0-3.84 0h-101.12c-11.52 1.28-20.48-7.68-21.76-17.92 0-1.28 0-2.56 0-2.56v-26.88h-216.32c-12.8 0-24.32-10.24-24.32-24.32v-354.56c0-12.8 10.24-21.76 23.040-21.76 0 0 1.28 0 1.28 0h737.28c12.8 1.28 23.040 12.8 23.040 25.6v536.32c-1.28 14.080-11.52 26.88-25.6 28.16zM337.92 139.52c-33.28 0-60.16 26.88-60.16 60.16s26.88 60.16 60.16 60.16c33.28 0 60.16-26.88 60.16-60.16s-26.88-60.16-60.16-60.16z" />
<glyph unicode="&#xe943;" glyph-name="fax" d="M189.44 864h645.12v-303.36h-645.12v303.36zM995.84 504.32h-967.68c-15.36 0-28.16-12.8-28.16-28.16v-416c0-15.36 12.8-28.16 28.16-28.16h967.68c15.36 0 28.16 12.8 28.16 28.16v416c0 15.36-12.8 28.16-28.16 28.16zM805.12 174.080c-1.28-7.68-8.96-12.8-19.2-11.52l-107.52 15.36c-3.84 0-5.12 3.84-5.12 7.68 0 16.64-1.28 29.44-8.96 39.68-15.36 24.32-72.96 37.12-152.32 37.12s-133.12-8.96-152.32-37.12c-7.68-11.52-8.96-16.64-8.96-39.68 0-3.84-1.28-5.12-5.12-7.68l-112.64-16.64c-3.84 0-7.68 1.28-8.96 5.12-7.68 23.040-26.88 88.32 12.8 120.32 53.76 44.8 160 52.48 275.2 51.2 116.48 0 221.44-8.96 277.76-52.48 35.84-26.88 21.76-84.48 15.36-111.36z" />
<glyph unicode="&#xe944;" glyph-name="file" d="M869.12 705.28h-204.8c-7.68 0-15.36 6.4-15.36 15.36v204.8c0 6.4 3.84 11.52 8.96 14.080s11.52 1.28 16.64-3.84l204.8-204.8c3.84-3.84 5.12-10.24 2.56-16.64-1.28-5.12-7.68-8.96-12.8-8.96zM581.12 719.36v220.16c0 11.52-8.96 20.48-20.48 20.48h-407.040c-19.2 0-33.28-15.36-34.56-34.56l2.56-956.16c0-19.2 15.36-33.28 34.56-34.56h710.4c20.48 0 38.4 16.64 38.4 38.4v642.56c0 11.52-8.96 20.48-20.48 20.48h-220.16c-46.080 1.28-83.2 38.4-83.2 83.2z" />
<glyph unicode="&#xe945;" glyph-name="file-broken" d="M664.32 706.56h206.080c14.080 0 20.48 16.64 11.52 25.6l-206.080 204.8c-8.96 8.96-25.6 2.56-25.6-11.52v-206.080c0-6.4 6.4-12.8 14.080-12.8zM350.72 485.12c5.12 5.12 14.080 8.96 20.48 8.96s16.64-2.56 20.48-8.96l119.040-119.040 119.040 119.040c11.52 11.52 32 11.52 43.52 0l119.040-119.040 116.48 116.48v134.4c0 11.52-8.96 20.48-20.48 20.48h-220.16c-46.080 0-81.92 37.12-81.92 81.92v220.16c0 11.52-8.96 20.48-20.48 20.48h-413.44c-17.92 0-34.56-15.36-34.56-34.56v-445.44l113.92-113.92 119.040 119.040zM789.76 241.92c-8.96 0-16.64 2.56-20.48 8.96l-119.040 119.040-119.040-119.040c-5.12-6.4-11.52-8.96-20.48-8.96s-16.64 2.56-20.48 8.96l-119.040 119.040-119.040-119.040c-11.52-11.52-32-11.52-43.52 0l-93.44 94.72v-375.040c0-17.92 16.64-34.56 34.56-34.56h712.96c20.48 0 38.4 17.92 38.4 38.4v371.2l-93.44-93.44c-2.56-7.68-11.52-10.24-17.92-10.24z" />
<glyph unicode="&#xe946;" glyph-name="filter" d="M1024 898.56c0 17.92-16.64 34.56-34.56 34.56h-954.88c-17.92 0-34.56-15.36-34.56-34.56v-119.040l401.92-369.92v-355.84c0-49.92 40.96-92.16 92.16-92.16h34.56c49.92 0 92.16 40.96 92.16 92.16v355.84l401.92 369.92v119.040h1.28z" />
<glyph unicode="&#xe947;" glyph-name="find-a-car" d="M1024 115.2l-119.040 125.44c55.040 90.88 42.24 207.36-30.72 285.44-79.36 85.76-213.76 90.88-299.52 10.24-3.84-3.84-7.68-6.4-10.24-10.24-85.76-92.16-85.76-234.24 0-326.4 39.68-43.52 96-67.84 154.88-67.84 42.24 0 81.92 12.8 116.48 35.84l119.040-125.44 69.12 72.96zM615.68 253.44c-57.6 61.44-57.6 156.16 0 217.6 53.76 57.6 143.36 60.16 199.68 6.4 2.56-2.56 5.12-5.12 6.4-6.4 57.6-61.44 57.6-156.16 0-217.6-53.76-57.6-143.36-60.16-199.68-6.4-1.28 2.56-3.84 3.84-6.4 6.4zM527.36 554.24c17.92 19.2 39.68 35.84 62.72 48.64h-431.36c5.12 37.12 12.8 75.52 24.32 111.36 16.64 46.080 49.92 76.8 97.28 76.8h339.2c47.36 0 80.64-29.44 97.28-76.8 8.96-25.6 15.36-52.48 19.2-78.080 42.24-2.56 81.92-16.64 117.76-38.4h5.12c20.48 5.12 37.12 21.76 40.96 43.52-3.84 21.76-19.2 38.4-40.96 43.52h-48.64l-62.72 107.52c-11.52 21.76-52.48 64-93.44 64v0 0h-409.6c-40.96 0-81.92-43.52-96-64l-57.6-107.52h-51.2c-20.48-5.12-37.12-21.76-40.96-43.52 3.84-21.76 20.48-38.4 40.96-43.52h40.96c0 0-40.96-65.28-40.96-129.28v-257.28c0-34.56 7.68-43.52 40.96-43.52s81.92 0 81.92 85.76h304.64c-38.4 102.4-15.36 218.88 60.16 300.8zM288 427.52h-140.8c-23.040 0-24.32 28.16-24.32 60.16 0 33.28 26.88 49.92 57.6 49.92 19.2 0 107.52-44.8 107.52-44.8 34.56-21.76 23.040-64 0-65.28v0z" />
<glyph unicode="&#xe948;" glyph-name="forward" d="M1024 448v0c0 11.52-5.12 21.76-16.64 28.16l-518.4 330.24h-11.52v-295.68l-465.92 295.68h-11.52v-716.8h11.52l465.92 295.68v-295.68h11.52l518.4 328.96c11.52 5.12 16.64 17.92 16.64 29.44v0 0 0z" />
<glyph unicode="&#xe949;" glyph-name="fullscreen-enter" d="M675.84 547.84c7.68-7.68 19.2-7.68 26.88 0l206.080 189.44 71.68-71.68c7.68-7.68 21.76-2.56 21.76 7.68l19.2 268.8c0 10.24-7.68 16.64-16.64 16.64l-268.8-19.2c-11.52 0-16.64-14.080-7.68-21.76l71.68-71.68-189.44-207.36c-7.68-7.68-7.68-19.2 0-26.88l65.28-64zM345.6 345.6c-7.68 7.68-19.2 7.68-26.88 0l-206.080-186.88-71.68 71.68c-7.68 7.68-21.76 2.56-21.76-7.68l-19.2-268.8c0-10.24 7.68-16.64 16.64-16.64l268.8 19.2c11.52 0 16.64 14.080 7.68 21.76l-71.68 71.68 189.44 207.36c7.68 7.68 7.68 19.2 0 26.88l-65.28 61.44zM980.48 227.84l-71.68-71.68-207.36 189.44c-7.68 7.68-19.2 7.68-26.88 0l-62.72-62.72c-7.68-7.68-7.68-19.2 0-26.88l189.44-207.36-71.68-71.68c-7.68-7.68-2.56-21.76 7.68-21.76l268.8-19.2c10.24 0 16.64 7.68 16.64 16.64l-19.2 268.8c-1.28 8.96-15.36 14.080-23.040 6.4zM221.44 843.52l71.68 71.68c7.68 7.68 2.56 21.76-7.68 21.76l-268.8 19.2c-8.96 0-16.64-6.4-16.64-16.64l19.2-268.8c0-11.52 14.080-16.64 21.76-7.68l71.68 71.68 207.36-189.44c7.68-7.68 19.2-7.68 26.88 0l62.72 62.72c7.68 7.68 7.68 19.2 0 26.88l-188.16 208.64z" />
<glyph unicode="&#xe94a;" glyph-name="fullscreen-exit" d="M628.48 551.68l266.24 19.2c11.52 0 16.64 14.080 7.68 21.76l-71.68 71.68 186.88 202.24c7.68 7.68 7.68 19.2 0 25.6l-61.44 61.44c-7.68 7.68-19.2 7.68-25.6 0l-204.8-186.88-71.68 71.68c-7.68 7.68-21.76 2.56-21.76-7.68l-17.92-264.96c-2.56-10.24 6.4-16.64 14.080-14.080zM395.52 346.88l-266.24-19.2c-11.52 0-16.64-14.080-7.68-21.76l71.68-71.68-186.88-202.24c-7.68-7.68-7.68-19.2 0-25.6l61.44-61.44c7.68-7.68 19.2-7.68 25.6 0l203.52 186.88 71.68-71.68c7.68-7.68 21.76-2.56 21.76 7.68l19.2 264.96c2.56 8.96-3.84 16.64-14.080 14.080zM832 235.52l71.68 71.68c7.68 7.68 2.56 21.76-7.68 21.76l-266.24 19.2c-8.96 0-16.64-7.68-16.64-16.64l19.2-266.24c0-11.52 14.080-16.64 21.76-7.68l71.68 71.68 203.52-186.88c7.68-7.68 19.2-7.68 25.6 0l61.44 61.44c7.68 7.68 7.68 19.2 0 25.6l-184.32 206.080zM369.92 838.4l-71.68-71.68-203.52 188.16c-7.68 7.68-19.2 7.68-25.6 0l-62.72-61.44c-6.4-7.68-6.4-19.2 0-26.88l186.88-203.52-71.68-71.68c-7.68-7.68-2.56-21.76 7.68-21.76l266.24-19.2c8.96 0 16.64 7.68 16.64 16.64l-19.2 266.24c-2.56 10.24-16.64 14.080-23.040 5.12z" />
<glyph unicode="&#xe94b;" glyph-name="garage" d="M760.32 316.16c0 0-1.28 12.8-19.2 37.12-3.84 6.4-7.68 10.24-12.8 17.92 0 0-2.56 3.84-5.12 8.96 6.4 0 40.96 0 40.96 17.92 0 16.64-38.4 21.76-46.080 19.2-5.12-1.28-5.12-10.24-5.12-17.92-1.28 2.56-2.56 5.12-2.56 6.4l-40.96 80.64c-1.28 1.28-2.56 3.84-3.84 5.12-5.12 5.12-16.64 16.64-147.2 16.64s-140.8-10.24-145.92-16.64c-1.28-1.28-2.56-2.56-3.84-5.12l-40.96-79.36-7.68-15.36c0 6.4 0 19.2-5.12 20.48-7.68 2.56-46.080-2.56-46.080-19.2 0-19.2 42.24-17.92 42.24-17.92v0l-2.56-2.56c-3.84-6.4-7.68-10.24-12.8-17.92-16.64-24.32-19.2-37.12-19.2-37.12s-2.56-99.84-2.56-102.4v-84.48c0-5.12 3.84-8.96 8.96-8.96h51.2c5.12 0 8.96 3.84 8.96 8.96v37.12h348.16v-37.12c0-5.12 3.84-8.96 8.96-8.96h51.2c5.12 0 8.96 3.84 8.96 8.96v185.6zM363.52 398.080l33.28 65.28c10.24 2.56 46.080 6.4 120.32 6.4 70.4 0 110.080-3.84 121.6-6.4l33.28-65.28c2.56-5.12-1.28-10.24-6.4-10.24h-295.68c-6.4-1.28-10.24 6.4-6.4 10.24zM368.64 262.4l-67.84 10.24c0 0-5.12 20.48 5.12 43.52s83.2-21.76 83.2-21.76l12.8-26.88-33.28-5.12zM514.56 259.84c-12.8 0-21.76 8.96-21.76 21.76s8.96 21.76 21.76 21.76c12.8 0 21.76-8.96 21.76-21.76 1.28-11.52-8.96-21.76-21.76-21.76zM728.32 272.64l-67.84-10.24-33.28 5.12 12.8 26.88c0 0 72.96 43.52 83.2 21.76 11.52-23.040 5.12-43.52 5.12-43.52zM939.52 138.24h-53.76v337.92h35.84l-409.6 234.24-409.6-232.96h35.84v-339.2h-53.76v285.44h-47.36c-15.36 0-28.16 8.96-33.28 23.040s-3.84 29.44 6.4 40.96l2.56 2.56 499.2 284.16 497.92-284.16 2.56-2.56c10.24-10.24 14.080-25.6 7.68-40.96-5.12-14.080-19.2-23.040-33.28-23.040h-47.36v-285.44z" />
<glyph unicode="&#xe94c;" glyph-name="gauge" d="M967.68 450.56c-28.16 0-52.48-20.48-56.32-48.64-23.040-204.8-204.8-362.24-418.56-352-203.52 11.52-368.64 176.64-378.88 377.6-11.52 215.040 147.2 395.52 352 419.84 28.16 3.84 48.64 28.16 48.64 56.32 0 33.28-29.44 60.16-64 56.32-272.64-34.56-478.72-281.6-446.72-569.6 26.88-235.52 216.32-424.96 450.56-450.56 288-32 535.040 174.080 569.6 446.72 3.84 33.28-23.040 64-56.32 64zM474.88 591.36c-37.12-8.96-69.12-35.84-89.6-69.12s-24.32-75.52-15.36-112.64 35.84-69.12 69.12-89.6c23.040-12.8 48.64-20.48 72.96-20.48 12.8 0 26.88 1.28 39.68 5.12 37.12 8.96 69.12 35.84 89.6 69.12s24.32 75.52 15.36 112.64c-3.84 11.52-7.68 23.040-12.8 32l153.6 328.96c5.12 12.8 1.28 28.16-11.52 35.84l-33.28 19.2c-12.8 7.68-28.16 3.84-37.12-7.68l-207.36-298.24c-10.24 0-21.76-1.28-33.28-5.12zM540.16 495.36c12.8-7.68 23.040-19.2 26.88-33.28 3.84-15.36 1.28-28.16-5.12-40.96-7.68-12.8-19.2-23.040-33.28-26.88-12.8-3.84-28.16-1.28-40.96 5.12-12.8 7.68-23.040 19.2-26.88 33.28-3.84 15.36-1.28 28.16 5.12 40.96 7.68 12.8 19.2 23.040 33.28 26.88 3.84 1.28 8.96 1.28 15.36 1.28 7.68 1.28 16.64 0 25.6-6.4z" />
<glyph unicode="&#xe94d;" glyph-name="gear-oil" d="M910.080 633.6c-8.96 1.28-19.2 0-29.44-3.84v0l-263.68-93.44c-1.28 0-15.36 0-16.64 1.28l-35.84 17.92c-15.36 7.68-32 11.52-48.64 11.52h-291.84c-6.4 0-12.8 0-17.92-1.28-2.56 0-5.12-1.28-8.96-2.56-1.28 0-3.84-1.28-7.68-3.84s-10.24-8.96-10.24-21.76v-231.68c0-24.32 20.48-44.8 44.8-44.8h291.84c19.2 0 35.84 5.12 51.2 16.64v0l334.080 254.72c-1.28-1.28 6.4 0 5.12 0v0l17.92-10.24c20.48-11.52 43.52-8.96 61.44 7.68v0l1.28 1.28c8.96 8.96 14.080 21.76 12.8 33.28-1.28 12.8-8.96 24.32-19.2 29.44v0l-42.24 25.6c-8.96 10.24-19.2 14.080-28.16 14.080v0zM865.28 570.88l-328.96-252.16c-1.28-1.28-17.92-6.4-20.48-6.4h-285.44v202.24h286.72c5.12 0 21.76-3.84 25.6-6.4v0l35.84-17.92c19.2-8.96 35.84-10.24 56.32-3.84l230.4 84.48zM85.76 619.52c-11.52 0-21.76-5.12-30.72-14.080l-40.96-39.68c-17.92-16.64-19.2-43.52-3.84-62.72l174.080-220.16 39.68 32-171.52 217.6 37.12 34.56c0 0 0 0-1.28 1.28l1.28-1.28 1.28 1.28c-1.28 0-1.28-1.28-2.56-1.28l99.84-75.52 30.72 40.96-102.4 78.080c-7.68 6.4-19.2 8.96-30.72 8.96v0zM974.080 483.84c-1.28 2.56-5.12 2.56-6.4 0-11.52-16.64-49.92-61.44-49.92-99.84 0-28.16 24.32-51.2 52.48-51.2 29.44 0 52.48 23.040 52.48 51.2 1.28 34.56-37.12 83.2-48.64 99.84v0zM366.080 597.76v-49.92h51.2v49.92h-51.2zM313.6 633.6c-16.64 0-32-14.080-32-26.88 0-15.36 15.36-28.16 32-28.16h156.16c17.92 0 32 12.8 32 26.88 0 16.64-15.36 28.16-32 28.16h-156.16z" />
<glyph unicode="&#xe94e;" glyph-name="get-your-volkswagen" d="M1002.24 216.32v52.48c0 0-14.080 35.84-34.56 65.28-20.48 30.72-40.96 52.48-40.96 52.48v16.64c0 0-162.56 29.44-400.64 14.080-96-6.4-253.44-112.64-253.44-112.64s-142.080-15.36-211.2-47.36c-21.76-10.24-44.8-42.24-52.48-62.72l-8.96-8.96v-32l11.52-6.4v-46.080l112.64-16.64h10.24c8.96-30.72 37.12-55.040 70.4-55.040 34.56 0 62.72 24.32 71.68 56.32l480 10.24c3.84-37.12 34.56-66.56 74.24-66.56s71.68 30.72 74.24 70.4l80.64 1.28c0 0 26.88 16.64 30.72 30.72 8.96 30.72 8.96 74.24 8.96 74.24l-23.040 10.24zM901.12 810.24c-76.8 76.8-202.24 76.8-277.76 1.28-37.12-37.12-56.32-85.76-56.32-138.24 0-34.56 10.24-69.12 26.88-97.28l-107.52-108.8c14.080 3.84 26.88 5.12 39.68 6.4 39.68 3.84 80.64 3.84 120.32 5.12l24.32 24.32c29.44-16.64 62.72-25.6 96-25.6 49.92 0 99.84 19.2 138.24 56.32 72.96 74.24 72.96 199.68-3.84 276.48zM847.36 586.24c-46.080-46.080-121.6-46.080-168.96 1.28-21.76 21.76-35.84 52.48-35.84 85.76s11.52 61.44 34.56 84.48c21.76 21.76 52.48 34.56 84.48 34.56s61.44-11.52 85.76-35.84c46.080-47.36 46.080-122.88 0-170.24z" />
<glyph unicode="&#xe94f;" glyph-name="globe" d="M972.8 670.72c-64 133.12-185.6 235.52-332.8 272.64-15.36 3.84-33.28 7.68-48.64 10.24-25.6 3.84-51.2 6.4-78.080 6.4-25.6 0-52.48-2.56-78.080-6.4-66.56-10.24-125.44-32-180.48-62.72-14.080-7.68-25.6-15.36-37.12-23.040-10.24-6.4-17.92-11.52-25.6-19.2-19.2-15.36-39.68-35.84-56.32-55.040-6.4-7.68-11.52-14.080-19.2-21.76-72.96-85.76-115.2-199.68-115.2-321.28 0-51.2 7.68-102.4 21.76-148.48 62.72-212.48 257.28-364.8 488.96-364.8 282.88 0 512 229.12 512 512-2.56 78.080-19.2 154.88-51.2 221.44zM419.84 872.96c-3.84-3.84-10.24-6.4-14.080-3.84 6.4 1.28 10.24 1.28 14.080 3.84zM354.56 852.48c2.56 0 6.4-2.56 10.24-2.56-2.56-14.080-17.92-14.080-26.88-11.52-3.84 0-7.68 2.56-14.080 2.56 11.52 3.84 21.76 7.68 30.72 11.52zM656.64 747.52c3.84 11.52 21.76 10.24 23.040 15.36 6.4 14.080-19.2 14.080-25.6 17.92 7.68 10.24 11.52-3.84 21.76-2.56 10.24 2.56-3.84 14.080-10.24 14.080-2.56 0-32-7.68-14.080 6.4-19.2 11.52-40.96 25.6-62.72 39.68-3.84-14.080 26.88-23.040 39.68-26.88-2.56-6.4-11.52-14.080-17.92-11.52s-3.84 14.080-14.080 11.52c-6.4-17.92 15.36-11.52 17.92-23.040s-10.24-6.4-14.080-6.4c-2.56 0-10.24 10.24-10.24 2.56-2.56-7.68 11.52-3.84 14.080-11.52-15.36 0-23.040 6.4-35.84 14.080-11.52 6.4-20.48 6.4-38.4 6.4 3.84 2.56 11.52 3.84 17.92 7.68 2.56 2.56 11.52 11.52 11.52 14.080 2.56 10.24 0 10.24-10.24 14.080-7.68 6.4-17.92 14.080-26.88 17.92-33.28 6.4-10.24-32-35.84-35.84-6.4 2.56-17.92 2.56-21.76-2.56-2.56-2.56-2.56-11.52-6.4-14.080-6.4-6.4-14.080-6.4-19.2-11.52-6.4-3.84-19.2-14.080-23.040-21.76-14.080-25.6 32-33.28 47.36-40.96 6.4-3.84 29.44-7.68 33.28-14.080 6.4-7.68-3.84-14.080 6.4-19.2 3.84-2.56 11.52-2.56 14.080 2.56 6.4 6.4-2.56 6.4-3.84 14.080-2.56 11.52 2.56 7.68 7.68 11.52 14.080 10.24 10.24 10.24 6.4 25.6-2.56 6.4-11.52 26.88-3.84 33.28 10.24 6.4 29.44-3.84 37.12-3.84 7.68-2.56 14.080-14.080 17.92-17.92s10.24-10.24 14.080-10.24c10.24 2.56 6.4 10.24 10.24 11.52 14.080 10.24 17.92-3.84 23.040-15.36 6.4-11.52 10.24-15.36 19.2-23.040 3.84-3.84 23.040-15.36 19.2-23.040-2.56-3.84-23.040-11.52-26.88-14.080-19.2-6.4-58.88 11.52-62.72-21.76 7.68 2.56 32 21.76 37.12 11.52 3.84-3.84-2.56-10.24-2.56-14.080 3.84-11.52 14.080-7.68 23.040-6.4-2.56 0-2.56-2.56-2.56-2.56 14.080 6.4 11.52 3.84 17.92 15.36 2.56 3.84 6.4 11.52 7.68 14.080 10.24 7.68 11.52 2.56 17.92-3.84 2.56-2.56 17.92-23.040 11.52-21.76-17.92 3.84-33.28 2.56-47.36-6.4-10.24-3.84-17.92-11.52-25.6-15.36-2.56-2.56-19.2-3.84-17.92 0s11.52 6.4 17.92 11.52c-11.52 3.84-19.2-6.4-29.44-11.52-10.24-3.84-11.52-11.52-19.2-19.2-3.84-3.84-10.24-3.84-14.080-7.68s-3.84-11.52-6.4-14.080c-2.56-2.56-7.68 0-10.24-3.84-3.84-3.84 2.56-10.24 2.56-14.080-2.56-6.4-15.36-14.080-19.2-17.92v0c-3.84-3.84-10.24-7.68-14.080-14.080 2.56-10.24 6.4-29.44 6.4-33.28-3.84-15.36-14.080 10.24-19.2 14.080-14.080 21.76-43.52 7.68-62.72 6.4-25.6-2.56-48.64-33.28-33.28-58.88 7.68-11.52 19.2-17.92 33.28-14.080 11.52 2.56 15.36 19.2 26.88 19.2 23.040 0 2.56-21.76-2.56-29.44-1.28-5.12 2.56-5.12 10.24-6.4 6.4-2.56 14.080 2.56 17.92-2.56 2.56-2.56 2.56-14.080 6.4-10.24-7.68-6.4-6.4-23.040 2.56-29.44 10.24-6.4 19.2-2.56 32-3.84 17.92-3.84 10.24 2.56 25.6 11.52 11.52 6.4 11.52-2.56 19.2-2.56 3.84 0 7.68 7.68 17.92 6.4 6.4-2.56 10.24-6.4 17.92-7.68 3.84 0 6.4 2.56 10.24 2.56 15.36-2.56 26.88-11.52 39.68-19.2 10.24-6.4 17.92-6.4 26.88-10.24 10.24-2.56 25.6-14.080 23.040-25.6 0-2.56-7.68-11.52-10.24-15.36 2.56-2.56 17.92 2.56 23.040 2.56-2.56-2.56-10.24-7.68-11.52-6.4 2.56-2.56 6.4-6.4 7.68-6.4 6.4 17.92 14.080 6.4 25.6 2.56 10.24-3.84 19.2-3.84 32-6.4 7.68-2.56 26.88-7.68 33.28-14.080 7.68-7.68 2.56-21.76-3.84-29.44-7.68-10.24-17.92-14.080-23.040-26.88-3.84-10.24-2.56-19.2-3.84-32-3.84-15.36-3.84-10.24-14.080-19.2-7.68-7.68 0-6.4-11.52-11.52-11.52-6.4-19.2-3.84-26.88-14.080v0c-3.84-3.84-6.4-14.080-6.4-17.92-3.84-7.68-10.24-11.52-14.080-19.2-2.56-2.56-23.040-32-25.6-29.44-2.56 3.84-17.92-3.84-19.2 2.56 2.56-3.84 0-2.56 3.84-3.84-3.84-25.6-14.080-26.88-37.12-26.88 2.56-11.52-10.24-10.24-14.080-15.36-3.84-3.84-3.84-14.080-6.4-17.92 0-2.56-3.84-6.4-6.4-10.24-15.36-3.84-33.28-6.4-51.2-6.4 2.56 2.56 3.84 3.84 3.84 7.68 2.56 3.84 0 3.84 2.56 7.68 3.84 11.52 2.56 7.68 0 17.92-3.84 19.2 2.56 26.88 7.68 47.36 6.4 19.2 6.4 47.36 10.24 69.12 2.56 10.24 3.84 32 2.56 40.96-3.84 11.52-21.76 19.2-29.44 26.88-11.52 10.24-17.92 21.76-25.6 35.84-3.84 6.4-10.24 14.080-11.52 19.2-7.68 15.36 0 6.4 2.56 15.36 2.56 10.24-2.56 17.92 2.56 25.6 3.84 10.24 14.080 17.92 17.92 26.88 2.56 10.24 0 19.2-10.24 23.040-3.84 2.56-10.24-2.56-15.36-2.56-7.68 2.56-15.36 6.4-21.76 11.52-7.68 6.4-10.24 15.36-19.2 21.76-7.68 6.4-11.52 2.56-19.2 3.84-7.68 3.84-11.52 11.52-19.2 15.36-10.24 3.84-14.080-2.56-25.6-2.56-10.24 2.56-23.040 11.52-32 14.080-15.36 7.68-25.6 15.36-33.28 33.28-6.4 14.080-14.080 19.2-23.040 33.28-10.24 11.52-14.080 23.040-26.88 25.6-2.56 2.56 3.84-11.52 3.84-14.080 6.4-10.24 14.080-19.2 19.2-26.88 10.24-14.080 6.4-17.92-3.84-3.84-11.52 14.080-25.6 32-33.28 47.36-3.84 6.4-3.84 10.24-10.24 15.36s-14.080 7.68-19.2 14.080c-21.76 19.2-25.6 43.52-23.040 70.4 0 10.24 3.84 17.92 2.56 25.6-2.56 6.4-3.84 11.52-10.24 17.92-2.56 3.84-6.4 10.24-6.4 10.24-3.84 7.68-7.68 15.36-15.36 23.040-2.56 2.56-3.84 3.84-7.68 6.4 35.84 44.8 80.64 81.92 131.84 110.080 7.68-6.4 17.92-11.52 15.36 0 11.52 2.56 23.040 2.56 35.84 0 3.84 0 19.2-6.4 25.6-3.84 2.56 2.56 3.84 10.24 6.4 11.52-3.84 0-6.4 2.56-10.24 2.56 7.68 10.24 15.36 2.56 25.6-2.56-10.24-6.4-3.84-23.040 6.4-10.24 10.24 11.52-2.56 17.92-14.080 25.6 11.52 14.080 19.2 15.36 29.44 0 2.56 10.24 10.24 6.4 17.92 6.4v2.56c3.84-7.68 0-6.4-3.84-6.4 3.84 7.68 3.84 11.52 6.4 15.36 16.64 5.12 39.68 6.4 65.28 6.4 11.52 0 23.040 0 35.84-2.56-7.68-3.84-14.080-6.4-19.2-7.68 14.080 0 44.8-11.52 55.040 3.84 89.6-14.080 170.24-56.32 232.96-117.76-6.4-2.56-11.52-3.84-17.92-7.68s-10.24-10.24-17.92-11.52c-6.4-2.56-14.080 0-19.2-2.56-23.040-7.68-19.2-56.32-48.64-48.64-14.080 3.84-25.6 19.2-32 32-6.4 10.24-17.92 17.92-10.24 32-7.68-3.84-10.24-2.56-14.080-3.84zM931.84 345.6c0 1.28 0 1.28 0 0-10.24 7.68-19.2 17.92-25.6 26.88-6.4 11.52-2.56 21.76-2.56 33.28 2.56 10.24-3.84 25.6 0 33.28 2.56 3.84 6.4 6.4 7.68 10.24 3.84 6.4 3.84 11.52 7.68 17.92 6.4 6.4 11.52 7.68 17.92 14.080 2.56 2.56 3.84 3.84 6.4 6.4 2.56-14.080 2.56-25.6 2.56-39.68-2.56-34.56-6.4-69.12-14.080-102.4z" />
<glyph unicode="&#xe950;" glyph-name="guarantee" d="M256 783.36h377.6c10.24 0 17.92-7.68 17.92-17.92v-24.32c0-10.24-7.68-17.92-17.92-17.92h-377.6c-10.24 0-17.92 7.68-17.92 17.92 0 0 0 0 0 0v24.32c0 10.24 7.68 17.92 17.92 17.92zM256 668.16h377.6c10.24 0 17.92-7.68 17.92-17.92v0-24.32c0-10.24-7.68-17.92-17.92-17.92h-377.6c-10.24 0-17.92 7.68-17.92 17.92v24.32c0 8.96 7.68 17.92 17.92 17.92zM495.36 171.52h-327.68v707.84h554.24v-293.12c8.96-2.56 16.64-7.68 24.32-14.080l15.36-12.8 19.2 3.84c3.84 0 7.68 1.28 11.52 1.28s6.4 0 10.24-1.28v332.8c0 35.84-28.16 64-64 64h-586.24c-35.84 0-64-28.16-64-64v-741.12c0-35.84 28.16-64 64-64h302.080l40.96 80.64zM448 331.52h-188.16c-10.24 0-17.92-7.68-17.92-17.92 0 0 0 0 0 0v-24.32c0-10.24 7.68-17.92 17.92-17.92 0 0 0 0 0 0h199.68c-12.8 17.92-15.36 39.68-11.52 60.16zM465.92 390.4c-3.84 15.36-3.84 30.72 1.28 46.080h-207.36c-10.24 0-17.92-7.68-17.92-17.92 0 0 0 0 0 0v-24.32c0-10.24 7.68-17.92 17.92-17.92 0 0 0 0 0 0h211.2l-5.12 14.080zM531.2 504.32c6.4 20.48 21.76 38.4 40.96 47.36h-317.44c-10.24 0-17.92-7.68-17.92-17.92v-24.32c0-10.24 7.68-17.92 17.92-17.92 0 0 0 0 0 0h272.64l3.84 12.8zM768 161.28l15.36 24.32c5.12 7.68 11.52 11.52 20.48 12.8l28.16 3.84c14.080 2.56 24.32 14.080 24.32 28.16v28.16c0 8.96 3.84 16.64 10.24 21.76l21.76 17.92c10.24 8.96 12.8 25.6 5.12 37.12l-15.36 24.32c-5.12 7.68-6.4 15.36-3.84 24.32l7.68 26.88c3.84 14.080-2.56 28.16-15.36 34.56l-25.6 11.52c-7.68 3.84-12.8 10.24-15.36 17.92l-7.68 26.88c-3.84 14.080-17.92 23.040-32 20.48l-28.16-3.84c-7.68-1.28-16.64 1.28-23.040 6.4l-21.76 17.92c-10.24 8.96-26.88 8.96-38.4 0l-21.76-16.64c-6.4-5.12-15.36-7.68-23.040-6.4l-28.16 3.84c-14.080 2.56-28.16-6.4-32-20.48l-7.68-26.88c-2.56-7.68-7.68-14.080-15.36-17.92l-25.6-11.52c-12.8-6.4-19.2-20.48-15.36-34.56l7.68-26.88c2.56-7.68 1.28-16.64-3.84-24.32l-15.36-24.32c-7.68-11.52-5.12-28.16 5.12-37.12l21.76-17.92c6.4-5.12 10.24-14.080 10.24-21.76v-28.16c0-14.080 10.24-26.88 24.32-28.16l28.16-3.84c7.68-1.28 15.36-6.4 20.48-12.8l15.36-24.32c7.68-11.52 23.040-16.64 35.84-10.24l25.6 11.52c7.68 3.84 16.64 3.84 24.32 0l25.6-11.52c14.080-7.68 29.44-2.56 37.12 8.96zM693.76 229.12c-66.56 0-120.32 53.76-120.32 120.32s53.76 120.32 120.32 120.32 120.32-53.76 120.32-120.32c0 0 0 0 0 0 0-66.56-53.76-120.32-120.32-120.32zM591.36 142.080l-14.080 21.76-25.6 3.84c-2.56 0-6.4 1.28-8.96 2.56l-90.88-176.64 72.96 3.84 39.68-61.44 92.16 179.2c-25.6-6.4-51.2 5.12-65.28 26.88v0zM837.12 167.68l-25.6-3.84-14.080-21.76c-14.080-21.76-40.96-33.28-66.56-28.16l92.16-179.2 39.68 61.44 72.96-3.84-90.88 176.64c-2.56 0-5.12 0-7.68-1.28z" />
<glyph unicode="&#xe951;" glyph-name="help-support-livechat" d="M995.84 550.4c-2.56 19.2-17.92 34.56-34.56 37.12l-37.12 6.4c-10.24 282.88-110.080 366.080-416 366.080-308.48 0-407.040-85.76-413.44-378.88l-30.72-2.56c-17.92-3.84-30.72-19.2-34.56-37.12-3.84-24.32-8.96-64-8.96-119.040 0-61.44 3.84-110.080 8.96-138.24 2.56-19.2 17.92-34.56 34.56-39.68l140.8-28.16c24.32-3.84 46.080 12.8 49.92 39.68 3.84 39.68 8.96 96 8.96 162.56 0 61.44-3.84 113.92-8.96 148.48-3.84 26.88-26.88 46.080-49.92 39.68l-21.76-3.84c8.96 225.28 72.96 273.92 326.4 273.92 248.32 0 316.16-46.080 326.4-261.12l-15.36 2.56c-24.32 3.84-46.080-12.8-49.92-39.68-3.84-34.56-8.96-85.76-8.96-148.48 0-65.28 3.84-122.88 8.96-162.56 2.56-26.88 26.88-46.080 49.92-39.68l21.76 3.84c-6.4-24.32-17.92-48.64-30.72-70.4-37.12-57.6-79.36-85.76-94.72-96h-88.32c-19.2 28.16-57.6 49.92-101.12 49.92-64 0-113.92-39.68-113.92-89.6s49.92-89.6 113.92-89.6c42.24 0 76.8 17.92 96 43.52h113.92l8.96 3.84c2.56 2.56 72.96 34.56 135.68 129.28 28.16 43.52 43.52 94.72 52.48 138.24l25.6 5.12c17.92 3.84 33.28 19.2 34.56 39.68 3.84 28.16 8.96 76.8 8.96 138.24 1.28 55.040-3.84 92.16-7.68 116.48z" />
<glyph unicode="&#xe952;" glyph-name="home" d="M1020.16 445.44l-505.6 506.88h-2.56l-225.28-222.72c-2.56-2.56-3.84 0-3.84 2.56v107.52c0 2.56 0 2.56-2.56 2.56h-121.6c-2.56 0-2.56 0-2.56-2.56v-240.64l-152.32-153.6c-7.68-7.68-2.56-23.040 8.96-23.040h104.96c2.56 0 2.56 0 2.56-2.56v-448c0-15.36 14.080-29.44 29.44-29.44h381.44c2.56 0 2.56 0 2.56 2.56v295.68c0 2.56 0 2.56 2.56 2.56h189.44v-296.96c0-2.56 0-2.56 2.56-2.56h147.2c15.36 0 29.44 14.080 29.44 29.44v448c0 2.56 0 2.56 2.56 2.56h103.68c11.52-1.28 16.64 14.080 8.96 21.76z" />
<glyph unicode="&#xe953;" glyph-name="image" d="M791.040 418.56l-161.28 216.32-157.44-222.72-111.36 97.28-108.8-158.72v-75.52h538.88v143.36zM408.32 741.12c33.28 0 58.88-26.88 58.88-58.88s-26.88-58.88-58.88-58.88-58.88 26.88-58.88 58.88 26.88 58.88 58.88 58.88zM984.32 925.44c0 17.92-15.36 34.56-34.56 34.56h-875.52c-17.92 0-34.56-15.36-34.56-34.56l2.56-956.16c0-17.92 15.36-33.28 34.56-33.28h874.24c17.92 0 34.56 15.36 34.56 34.56v954.88zM870.4 172.8h-716.8v673.28h716.8v-673.28z" />
<glyph unicode="&#xe954;" glyph-name="image-gallery" d="M672 346.88l-138.24 183.040-133.12-189.44-94.72 83.2-93.44-135.68v-64h458.24v122.88zM344.32 620.8c28.16 0 49.92-23.040 49.92-49.92 0-28.16-23.040-49.92-49.92-49.92s-49.92 21.76-49.92 49.92c0 28.16 21.76 49.92 49.92 49.92zM835.84 778.24c0 15.36-14.080 29.44-29.44 29.44h-744.96c-15.36 0-29.44-14.080-29.44-29.44l2.56-812.8c0-15.36 14.080-29.44 29.44-29.44h743.68c15.36 0 29.44 14.080 29.44 29.44v812.8zM739.84 136.96h-610.56v573.44h609.28v-573.44zM990.72 930.56c0 15.36-14.080 29.44-29.44 29.44h-725.76c-26.88 0-48.64-21.76-48.64-48.64s21.76-48.64 48.64-48.64h657.92v-724.48c0-26.88 21.76-48.64 48.64-48.64s48.64 21.76 48.64 48.64v792.32z" />
<glyph unicode="&#xe955;" glyph-name="info" d="M684.8 92.16h-72.96v491.52c0 11.52-8.96 21.76-21.76 21.76h-239.36c-11.52 0-21.76-8.96-21.76-21.76l11.52-134.4h72.96v-357.12h-72.96c-14.080 0-23.040-8.96-23.040-23.040v-108.8c0-11.52 8.96-23.040 23.040-23.040h340.48c14.080 0 23.040 8.96 23.040 23.040v108.8c3.84 11.52-5.12 23.040-19.2 23.040zM500.48 960c75.52 0 136.96-61.44 136.96-136.96s-61.44-136.96-136.96-136.96-136.96 61.44-136.96 136.96 60.16 136.96 136.96 136.96z" />
<glyph unicode="&#xe956;" glyph-name="interior" d="M999.68 284.16v52.48c0 0-14.080 35.84-34.56 65.28-20.48 30.72-40.96 52.48-40.96 52.48v16.64c0 0-56.32 10.24-152.32 15.36l-110.080-128c-14.080-15.36-34.56-25.6-55.040-25.6s-40.96 8.96-55.040 25.6l-94.72 111.36c-89.6-30.72-186.88-97.28-186.88-97.28s-142.080-15.36-211.2-47.36c-21.76-10.24-44.8-42.24-52.48-62.72l-6.4-10.24v-32l11.52-6.4v-46.080l112.64-16.64h10.24c8.96-30.72 37.12-55.040 70.4-55.040 34.56 0 62.72 24.32 71.68 56.32l480 10.24c3.84-37.12 34.56-66.56 74.24-66.56s71.68 30.72 74.24 70.4l80.64 1.28c0 0 26.88 16.64 30.72 30.72 8.96 30.72 8.96 74.24 8.96 74.24l-25.6 11.52zM599.040 386.56c1.28-3.84 5.12-3.84 8.96-3.84s6.4 1.28 8.96 3.84l138.24 161.28c5.12 6.4 1.28 16.64-8.96 16.64h-80.64l-10.24 222.72c0 8.96-6.4 14.080-15.36 14.080h-71.68c-8.96 0-15.36-6.4-15.36-14.080l-10.24-222.72h-80.64c-8.96 0-14.080-10.24-8.96-16.64l145.92-161.28z" />
<glyph unicode="&#xe957;" glyph-name="legal-terms" d="M990.72 930.56c0 16.64-12.8 29.44-29.44 29.44h-724.48c-26.88 0-48.64-21.76-48.64-48.64s21.76-48.64 48.64-48.64h657.92v-724.48c0-26.88 21.76-48.64 48.64-48.64s48.64 21.76 48.64 48.64l-1.28 792.32zM463.36 396.8l-65.28 26.88c-11.52-8.96-16.64-23.040-16.64-37.12-1.28-20.48 11.52-38.4 30.72-43.52l64-26.88c10.24 8.96 16.64 21.76 16.64 35.84 0 19.2-11.52 37.12-29.44 44.8zM806.4 806.4h-744.96c-16.64 0-29.44-12.8-29.44-29.44l1.28-812.8c0-16.64 12.8-29.44 29.44-29.44h743.68c16.64 0 29.44 12.8 29.44 29.44v814.080c0 15.36-12.8 28.16-29.44 28.16zM569.6 215.040c0-71.68-57.6-113.92-136.96-113.92-46.080 0-92.16 11.52-133.12 33.28l25.6 66.56c32-20.48 69.12-32 107.52-34.56 38.4 0 57.6 16.64 57.6 38.4 0 17.92-7.68 33.28-43.52 47.36l-65.28 25.6c-47.36 19.2-76.8 47.36-76.8 93.44 0 32 19.2 60.16 48.64 72.96v1.28c-29.44 17.92-47.36 49.92-48.64 84.48 0 66.56 48.64 113.92 135.68 113.92 39.68 1.28 78.080-6.4 113.92-23.040l-21.76-64c-28.16 14.080-60.16 21.76-92.16 21.76-38.4 0-56.32-20.48-56.32-40.96 0-16.64 7.68-33.28 38.4-44.8l53.76-20.48c65.28-24.32 93.44-56.32 93.44-101.12 0-28.16-21.76-52.48-49.92-74.24v-2.56c29.44-15.36 48.64-46.080 49.92-79.36z" />
<glyph unicode="&#xe958;" glyph-name="link-arrow" d="M1015.040 469.76l-395.52 337.92c-16.64 15.36-42.24 2.56-42.24-19.2v-189.44h-545.28c-16.64 0-32-15.36-32-32v-236.8c0-16.64 15.36-32 32-32h546.56v-192c0-21.76 25.6-34.56 42.24-19.2l394.24 339.2c11.52 11.52 11.52 32 0 43.52z" />
<glyph unicode="&#xe959;" glyph-name="list-bullets" d="M995.84 800h-747.52c-15.36 0-28.16-12.8-28.16-28.16v-57.6c0-15.36 12.8-28.16 28.16-28.16h747.52c15.36 0 28.16 12.8 28.16 28.16v57.6c0 14.080-12.8 28.16-28.16 28.16zM85.76 800h-57.6c-15.36 0-28.16-12.8-28.16-28.16v-57.6c0-15.36 12.8-28.16 28.16-28.16h57.6c15.36 0 28.16 12.8 28.16 28.16v57.6c1.28 14.080-12.8 28.16-28.16 28.16zM995.84 602.88h-747.52c-15.36 0-28.16-12.8-28.16-28.16v-57.6c0-15.36 12.8-28.16 28.16-28.16h747.52c15.36 0 28.16 12.8 28.16 28.16v57.6c0 16.64-12.8 28.16-28.16 28.16zM85.76 602.88h-57.6c-15.36 0-28.16-14.080-28.16-28.16v-57.6c0-15.36 12.8-28.16 28.16-28.16h57.6c15.36 0 28.16 12.8 28.16 28.16v57.6c1.28 16.64-12.8 28.16-28.16 28.16zM995.84 408.32h-747.52c-15.36 0-28.16-12.8-28.16-28.16v-57.6c0-15.36 12.8-28.16 28.16-28.16h747.52c15.36 0 28.16 12.8 28.16 28.16v57.6c0 14.080-12.8 28.16-28.16 28.16zM85.76 408.32h-57.6c-15.36 0-28.16-12.8-28.16-28.16v-57.6c0-15.36 12.8-28.16 28.16-28.16h57.6c15.36 0 28.16 12.8 28.16 28.16v57.6c1.28 14.080-12.8 28.16-28.16 28.16zM995.84 211.2h-747.52c-15.36 0-28.16-12.8-28.16-28.16v-57.6c0-15.36 12.8-28.16 28.16-28.16h747.52c15.36 0 28.16 12.8 28.16 28.16v57.6c0 16.64-12.8 28.16-28.16 28.16zM85.76 211.2h-57.6c-15.36 0-28.16-12.8-28.16-28.16v-57.6c0-15.36 12.8-28.16 28.16-28.16h57.6c15.36 0 28.16 12.8 28.16 28.16v57.6c1.28 16.64-12.8 28.16-28.16 28.16z" />
<glyph unicode="&#xe95a;" glyph-name="list-sort" d="M861.44 864h-835.84c-14.080 0-25.6-11.52-25.6-25.6v-51.2c0-14.080 11.52-25.6 25.6-25.6h833.28c14.080 0 25.6 11.52 25.6 25.6v51.2c2.56 12.8-10.24 25.6-23.040 25.6zM25.6 37.12h275.2c14.080 0 25.6 11.52 25.6 25.6v51.2c0 14.080-11.52 25.6-25.6 25.6h-275.2c-14.080 0-25.6-11.52-25.6-25.6v-51.2c0-14.080 11.52-25.6 25.6-25.6zM25.6 277.76h422.4c14.080 0 25.6 11.52 25.6 25.6v51.2c0 14.080-11.52 25.6-25.6 25.6h-422.4c-14.080 0-25.6-11.52-25.6-25.6v-51.2c0-14.080 11.52-25.6 25.6-25.6zM596.48 623.36h-570.88c-14.080 0-25.6-11.52-25.6-25.6v-51.2c0-14.080 11.52-25.6 25.6-25.6h570.88c14.080 0 25.6 11.52 25.6 25.6v51.2c0 12.8-11.52 25.6-25.6 25.6zM1009.92 298.24h-115.2l-14.080 321.28c0 11.52-10.24 20.48-21.76 20.48h-103.68c-11.52 0-20.48-8.96-21.76-20.48l-15.36-321.28h-115.2c-14.080 0-20.48-15.36-11.52-25.6l200.96-234.24c6.4-8.96 19.2-8.96 25.6 0l200.96 234.24c10.24 10.24 3.84 25.6-8.96 25.6z" />
<glyph unicode="&#xe95b;" glyph-name="lock" d="M862.72 544h-701.44c-17.92 0-33.28-15.36-33.28-33.28v-544c0-17.92 15.36-33.28 33.28-33.28h702.72c17.92 0 33.28 15.36 33.28 33.28v544c-1.28 17.92-16.64 33.28-34.56 33.28zM567.040 254.72v-101.12c0-30.72-24.32-55.040-55.040-55.040s-55.040 24.32-55.040 55.040v99.84c-24.32 15.36-39.68 43.52-39.68 78.080 0 56.32 37.12 93.44 93.44 93.44s93.44-39.68 93.44-93.44c-1.28-33.28-14.080-62.72-37.12-76.8zM492.8 851.2c-96 0-126.72 0-148.48-21.76-24.32-24.32-25.6-149.76-25.6-149.76v-87.040h-111.36v85.76c0 102.4 8.96 179.2 58.88 226.56 56.32 55.040 99.84 55.040 227.84 55.040h37.12c126.72 0 172.8 0 229.12-55.040 47.36-47.36 56.32-125.44 58.88-226.56h-2.56v-87.040h-111.36v87.040c0 0-2.56 126.72-25.6 149.76-24.32 23.040-52.48 25.6-148.48 23.040h-38.4z" />
<glyph unicode="&#xe95c;" glyph-name="lock-ok" d="M816.64 593.92h-112.64v87.040c0 0-2.56 125.44-25.6 149.76-23.040 21.76-51.2 24.32-145.92 21.76h-38.4c-94.72 0-125.44 0-145.92-21.76-23.040-24.32-25.6-149.76-25.6-149.76v-87.040h-110.080v87.040c0 102.4 8.96 177.92 57.6 225.28 55.040 53.76 98.56 53.76 225.28 53.76h37.12c125.44 0 170.24 0 226.56-53.76 47.36-47.36 56.32-125.44 57.6-225.28zM712.96 349.44v0l-224-275.2c-5.12-6.4-12.8-10.24-20.48-10.24-5.12 0-11.52 1.28-15.36 5.12l-136.96 108.8c-5.12 3.84-8.96 10.24-8.96 17.92s2.56 14.080 7.68 19.2l19.2 21.76c6.4 8.96 24.32 11.52 34.56 3.84l89.6-55.040 192 216.32c10.24 10.24 25.6 10.24 35.84 3.84v0l25.6-20.48c7.68-10.24 8.96-25.6 1.28-35.84zM864 538.88h-704c-17.92 0-33.28-15.36-33.28-32v-538.88c0-16.64 15.36-32 33.28-32h704c17.92 0 33.28 15.36 33.28 32v537.6c0 17.92-15.36 33.28-33.28 33.28z" />
</font>
</defs>
</svg>
